<svg xmlns="http://www.w3.org/2000/svg">
<defs>
<font
   id="FontID0"
   font-variant="small-caps,normal"
   class="str1"
   font-style="normal"
   font-weight="400"
   horiz-origin-x="0"
   horiz-origin-y="0"
   horiz-adv-x="0"
   vert-origin-x="0"
   vert-origin-y="0"
   vert-adv-y="0"
   style="font-style:normal;font-weight:400;stroke-width:50.00279999">
	<font-face
   font-family="Chow Fun"
   id="font-face7">
	</font-face>
   <missing-glyph
   id="missing-glyph9"><path
     d="M0 0z"
     id="path11" /></missing-glyph>
   <glyph
   unicode=","
   horiz-adv-x="255"
   id="glyph13"><path
     d="M216.002 35.0081c0,-78.0242 -45.3193,-140.67 -135.993,-188.009 22.6419,41.9885 33.9806,84.3314 33.9806,126.993 0,52.0162 -20.9765,89.6818 -63.0005,112.997l132.025 63.0005c22.0041,-33.3073 32.9884,-71.6462 32.9884,-114.981z"
     id="path15" /></glyph>
   <glyph
   unicode=" "
   horiz-adv-x="309"
   id="glyph17" />
   <glyph
   unicode="-"
   horiz-adv-x="327"
   id="glyph19"><path
     d="M18.9923 339.995l291.002 10.0158 -9.9922 -84.0007c-108.662,0 -202.679,-13.6773 -282.002,-41.0082l0.992134 114.993z"
     id="path21" /></glyph>
   <glyph
   unicode="6"
   horiz-adv-x="679"
   id="glyph23"><path
     d="M666.005 269.01c0,-127.347 -55.3469,-191.009 -165.993,-191.009 -30.0002,0 -57.6855,3.00002 -83.0085,9.00007 56.0083,86.0086 84.0007,159.001 84.0007,219.002 0,32.0081 -9.33078,60.1658 -27.9923,84.4967 -18.6852,24.3309 -43.6775,36.4964 -75.0006,36.4964 -29.3388,0 -67.6777,-9.00007 -115.017,-27.0002l45.0004 89.0086c35.3389,16.6537 70.6777,24.9923 106.017,24.9923 66.6619,0 121.985,-24.0002 165.993,-72.0006 43.9846,-48.0004 66.0005,-105.662 66.0005,-172.986zm-48.0004 435.996l-97.0165 -74.0085c-31.3231,49.3468 -74.977,74.0085 -130.985,74.0085 -60.0005,0 -105.001,-41.3389 -135.001,-124.017 -21.9923,-60.0005 -33.0003,-126.993 -33.0003,-200.978 0,-90.6858 18.9923,-168.686 57.0004,-234.002 45.9925,-78.6857 111.001,-118.017 195.002,-118.017 22.6537,0 40.9846,4.6772 54.9926,14.008 -24.0002,-48.6618 -70.6541,-72.9927 -139.985,-72.9927 -86.67,0 -167.009,37.3231 -241.018,111.993 -73.9848,74.6699 -111.001,156.001 -111.001,243.994 0,128.67 29.3388,237.002 88.0164,324.995 67.3234,101.339 162.332,152.009 285.002,152.009 83.3156,0 152.647,-32.3388 207.994,-96.9929z"
     id="path25" /></glyph>
   <glyph
   unicode="7"
   horiz-adv-x="613"
   id="glyph27"><path
     d="M657.997 771.998l-60.0005 -74.0085c-20.008,6.00005 -47.339,9.00007 -81.9928,9.00007 -144.663,0 -306.333,-57.6619 -485.012,-172.986l68.0084 208.986c99.3315,37.3468 213.002,56.0083 341.011,56.0083 76.6541,0 149.316,-9.00007 217.986,-27.0002zm-96.9929 -111.001c-67.347,-94.6543 -124.678,-208.986 -171.993,-342.995 -44.0082,-124.678 -73.6777,-249.002 -89.0086,-372.995l-186.994 51.9925c18.0001,111.993 61.654,230.01 130.985,354.003 64.6777,114.001 140.34,214.655 227.01,301.987l90.0007 8.00794z"
     id="path29" /></glyph>
   <glyph
   unicode="4"
   horiz-adv-x="789"
   id="glyph31"><path
     d="M792.006 212.01l-112.017 -30.0002 0 66.9927c34.6774,0 72.0006,9.9922 112.017,30.0002l0 -66.9927zm-120.001 -224.01l-192.994 -45.0004c-2.66931,25.323 -4.01578,58.6776 -4.01578,99.9929 0,209.34 30.9924,414.665 93.0007,615.997l81.9928 45.0004c-9.9922,-79.9849 -15.0001,-175.655 -15.0001,-286.987 0,-157.348 12.3544,-300.333 37.016,-429.003zm-7.0158 864.999l-15.0001 -81.9928c-79.9849,-44.0082 -156.332,-112.017 -228.994,-204.002 -66.0005,-82.6778 -118.985,-171.332 -159.001,-266.01 12.0001,-25.9845 66.6619,-45.6618 164.009,-58.9847l0 -105.001c-14.6694,-3.33073 -35.3389,-5.00791 -62.0084,-5.00791 -89.3393,0 -205.324,18.9923 -348.003,57.0004 62.0084,136.655 151.678,265.656 269.01,387.003 120.001,123.332 246.663,215.671 379.987,276.994z"
     id="path33" /></glyph>
   <glyph
   unicode="0"
   horiz-adv-x="726"
   id="glyph35"><path
     d="M714.998 479.012c0,-35.3389 -1.65356,-61.6777 -5.00791,-79.0164l-3.99216 -21.9923 -2.00789 -5.00791 -0.992134 1.01576c-3.99216,-78.0006 -41.0082,-166.678 -111.001,-266.01l-126.993 3.00002c48.0004,56.0083 72.0006,161.009 72.0006,315.002 0,82.6542 -16.3466,152.34 -48.9925,208.986 -40.0161,69.3549 -98.3394,104.009 -175.017,104.009 -31.9845,0 -66.0005,-6.66147 -102.001,-20.008 31.3467,65.3391 87.6621,98.0086 169.017,98.0086 104.646,0 186.663,-30.3309 245.978,-90.9928 59.339,-60.6619 89.0086,-143.009 89.0086,-246.994zm-170.009 -408.003c-21.9923,-48.6854 -67.6541,-73.0163 -136.985,-73.0163 -94.6779,0 -179.671,40.6775 -255.002,122.009 -75.3313,81.3313 -113.009,170.009 -113.009,266.01 0,107.316 20.6695,198.994 62.0084,274.986l183.001 21.9923c-42.0003,-50.6461 -63.0005,-129.662 -63.0005,-236.978 0,-99.3551 19.6537,-184.679 59.0083,-256.018 48.6618,-88.6542 118.654,-132.993 210.002,-132.993 22.6537,0 40.6539,4.6772 53.9768,14.008z"
     id="path37" /></glyph>
   <glyph
   unicode="5"
   horiz-adv-x="705"
   id="glyph39"><path
     d="M651.997 765.006l-96.9929 -142.017c-111.993,50.0083 -207.663,75.0006 -287.01,75.0006 -37.9846,0 -66.6619,-4.98429 -85.9849,-15.0001l-52.0162 -320.979 -73.9848 -44.0082 51.9925 432.003c68.6698,42.6618 153.993,63.9926 255.994,63.9926 102.001,0 198.002,-16.323 288.002,-48.9925zm38.0082 -477.996c0,-82.6778 -37.6775,-153.001 -113.009,-211.017 -67.3234,-52.654 -144.332,-81.3313 -231.002,-85.9849 46.0161,27.9923 83.67,66.4966 113.009,115.489 29.3388,48.9925 43.9846,99.8276 43.9846,152.505 0,53.339 -18.9923,95.3393 -56.9768,126.001 -35.3389,29.3388 -80.0085,44.0082 -134.009,44.0082 -43.3468,0 -81.6621,-9.3544 -114.993,-28.016l0 67.0163c55.9847,34.6538 115.654,51.9925 178.986,51.9925 73.347,0 141.663,-20.008 204.994,-60.0005 72.6856,-45.9925 109.017,-103.347 109.017,-171.993zm-329.01 -230.01c-21.9923,-19.323 -43.9846,-38.6696 -66.0005,-57.9926 -29.3388,-22.6773 -54.3311,-34.016 -75.0006,-34.016 -62.6698,0 -124.985,23.3388 -186.994,70.0163l90.0007 148.985c20.6695,-42.6618 54.0004,-75.3313 99.9929,-97.985 42.6618,-20.6695 88.6779,-30.3309 138.001,-29.0081z"
     id="path41" /></glyph>
   <glyph
   unicode="9"
   horiz-adv-x="657"
   id="glyph43"><path
     d="M633.997 453.004c0,-126.662 -25.323,-234.994 -75.9927,-324.995 -62.0084,-110.009 -151.348,-165.001 -267.994,-165.001 -52.6776,0 -101.505,13.3229 -146.505,39.9924 -45.0004,26.6695 -78.8274,63.0005 -101.505,108.993l96.9929 82.0164c12.0001,-36.6853 31.3467,-67.347 58.0162,-92.0086 30.0002,-27.9923 62.6462,-42.0003 97.985,-42.0003 65.3391,0 112.678,50.6697 142.017,152.009 19.9844,67.9848 30.0002,145.655 30.0002,232.986 0,75.3313 -15.6852,138.993 -47.0082,191.009 -38.0082,61.3233 -92.67,91.985 -164.009,91.985 -31.9845,0 -66.0005,-6.66147 -102.001,-19.9844 34.016,65.3391 91.6779,97.985 173.009,97.985 111.993,0 192.663,-32.3152 241.986,-96.9929 43.3468,-56.6697 65.0084,-141.993 65.0084,-255.994zm-226.986 -50.0083c-2.66931,-61.3233 -6.00005,-97.3236 -10.0158,-108.001 -11.3387,-33.331 -39.6617,-49.9846 -84.9928,-49.9846 -66.6619,0 -123.001,19.323 -168.993,57.9926 -49.3468,40.6539 -74.0085,93.6622 -74.0085,159.001 0,54.0004 13.3229,118.654 39.9924,193.986 60.0005,21.3545 107.67,31.6774 143.009,31.016l29.0081 -1.01576c-35.3389,-54.0004 -53.0083,-108.993 -53.0083,-165.001 0,-38.646 8.00794,-73.9848 24.0002,-105.993 19.323,-39.9924 46.3232,-60.0005 81.0006,-60.0005 26.0081,0 50.6697,16.0159 74.0085,48.0004z"
     id="path45" /></glyph>
   <glyph
   unicode="8"
   horiz-adv-x="706"
   id="glyph47"><path
     d="M624.997 654.005c0,-28.016 -7.32289,-60.0005 -21.9923,-96.0008 -17.3387,-43.3468 -37.3468,-65.0084 -60.0005,-65.0084 -4.6772,0 -52.3469,24.9923 -143.009,75.0006 11.3387,8.66936 20.6695,22.6773 28.016,42.0003 6.66147,17.3387 9.9922,33.6617 9.9922,48.9925 0,21.3545 -12.9922,37.3468 -39.0003,48.0004 -7.34651,3.35436 -29.3388,9.3544 -66.0005,18.0001 6.00005,21.3545 17.8348,38.6696 35.5042,52.0162 17.6694,13.3229 37.4885,19.9844 59.5044,19.9844 54.0004,0 98.3157,-10.3229 132.993,-30.9924 42.6618,-24.6616 63.9926,-62.0084 63.9926,-111.993zm54.9926 -426.003c0,-62.0084 -34.1577,-122.836 -102.497,-182.505 -68.3155,-59.6698 -134.151,-89.5046 -197.482,-89.5046 -22.6773,0 -45.6854,3.00002 -69.0005,9.00007 44.646,26.6695 83.3156,56.0083 115.985,88.0164 44.6696,43.9846 67.0163,84.3314 67.0163,120.993 0,46.6539 -34.6774,91.3236 -104.009,134.009 -63.9926,34.6538 -128.009,69.662 -192.002,105.001 -69.3313,43.3232 -104.009,89.6464 -104.009,138.993 0,62.6698 22.8427,117.166 68.5045,163.489 45.6618,46.3468 100.158,71.8352 163.513,76.5124 -59.339,-54.6618 -89.0086,-107.339 -89.0086,-158.009 0,-34.6538 38.3389,-74.0085 114.993,-117.993 70.6777,-39.9924 141.663,-80.3392 213.002,-120.993 76.6778,-53.339 114.993,-109.017 114.993,-167.009zm-323.979 -174.001c-23.3388,-16.6773 -46.6775,-33.331 -70.0163,-50.0083 -28.6538,-18.6616 -54.3311,-27.9923 -76.9849,-27.9923 -42.6854,0 -81.6857,18.4962 -117.001,55.4886 -35.3389,37.016 -53.0083,76.8431 -53.0083,119.505 0,80.0085 48.3311,149.67 144.993,209.01l149.009 -75.0006c-60.6619,-40.6775 -90.9928,-87.0007 -90.9928,-138.993 0,-27.3309 12.0001,-50.1736 36.0003,-68.5045 24.0002,-18.3309 49.9846,-26.1734 78.0006,-23.5041z"
     id="path49" /></glyph>
   <glyph
   unicode="3"
   horiz-adv-x="757"
   id="glyph51"><path
     d="M723.006 228.994c0,-69.9927 -35.3389,-130.655 -106.017,-181.986 -64.6541,-46.6775 -133.655,-70.0163 -206.978,-70.0163 -36.6853,0 -75.3549,4.6772 -116.009,14.008 58.654,20.008 108.993,50.339 150.993,90.9928 48.0004,47.339 72.0006,99.0008 72.0006,155.009 0,53.339 -20.6695,100.654 -61.9847,141.993 -38.0082,37.3468 -84.355,62.0084 -139.017,74.0085 119.34,22.6537 179.009,79.9849 179.009,171.993 0,37.3468 -11.008,63.3312 -33.0003,78.0006 -18.0001,12.6615 -46.6775,18.9923 -86.0086,18.9923 -39.9924,0 -78.3313,-13.6537 -114.993,-40.9846 -33.331,-24.6616 -59.6698,-55.6776 -78.9927,-93.0007l-82.0164 118.985c83.3392,73.347 176.671,110.009 280.018,110.009 61.3233,0 122.647,-15.6615 183.994,-47.0082 73.3234,-36.6617 109.985,-82.6542 109.985,-138.001 0,-39.331 -10.9843,-76.9849 -33.0003,-112.985 -21.9923,-36.0003 -50.6461,-63.0005 -85.9849,-81.0006 111.993,-47.339 168.001,-117.001 168.001,-209.01zm-414.003 -186.001l-96.9929 -51.9925c-28.6774,0 -62.6698,14.3387 -102.001,42.9925 -30.6853,21.3309 -58.6776,46.6775 -84.0007,76.0163l103.985 156.993c4.6772,-46.6775 25.0159,-91.3472 61.0162,-134.009 32.6459,-38.6696 72.0006,-68.6698 117.993,-90.0007z"
     id="path53" /></glyph>
   <glyph
   unicode="2"
   horiz-adv-x="670"
   id="glyph55"><path
     d="M435.996 735.998c-59.339,-14.6694 -114.993,-39.331 -166.986,-74.0085 -58.6776,-38.646 -100.347,-82.3235 -125.009,-130.985l-80.0085 168.993c75.3313,71.3391 157.678,106.678 247.018,105.993l18.0001 0 106.985 -69.9927zm206.009 -144.001c0,-77.3392 -46.6775,-148.324 -140.009,-213.002 -85.9849,-52.654 -171.663,-105.332 -256.986,-157.985 -92.0086,-66.0005 -136.678,-139.348 -134.009,-220.017l-59.0083 -31.9845c-6.00005,32.6695 -9.00007,66.3312 -9.00007,100.985 0,102.662 40.0161,192.332 120.001,269.01 74.6699,55.3233 149.34,110.67 224.01,165.993 80.0085,60.0005 120.001,120.662 120.001,182.009 0,55.9847 -32.0081,96.6622 -96.0008,121.985 51.9925,-1.98427 102.993,-25.323 153.001,-69.9927 51.9925,-47.339 78.0006,-96.3315 78.0006,-147.001zm16.9844 -489.996l-106.985 -144.993c-56.0083,42.6618 -140.67,63.9926 -254.01,63.9926 -53.339,0 -100.985,-3.66145 -142.985,-11.008l33.9924 90.0007c65.3391,38.0082 138.663,57.0004 219.994,57.0004 93.3314,0 176.671,-18.3309 249.994,-54.9926z"
     id="path57" /></glyph>
   <glyph
   unicode=":"
   horiz-adv-x="203"
   id="glyph59"><path
     d="M178.017 52.0162c0,-22.0041 -7.8662,-42.52 -23.5277,-61.5123 -15.6615,-18.9923 -34.1577,-28.4884 -55.4886,-28.4884 -19.9844,0 -37.3468,9.00007 -52.0162,27.0002 -13.9962,15.9804 -20.9765,34.3349 -20.9765,54.9926 0,22.0041 7.83077,42.4846 23.4923,61.4769 15.6615,19.0277 34.1577,28.5238 55.4886,28.5238 20.0198,0 37.1696,-8.504 51.5201,-25.512 14.3151,-17.008 21.508,-35.8231 21.508,-56.4808zm-151.017 291.971c-1.98427,22.0041 4.18114,42.52 18.4962,61.5123 14.3505,18.9923 32.1735,28.4884 53.5044,28.4884 19.9844,0 37.6657,-8.504 53.0083,-25.4766 15.3072,-17.008 23.9884,-35.8586 26.0081,-56.5162 1.31103,-22.0041 -5.17327,-42.4846 -19.5238,-61.5123 -14.3151,-18.9923 -32.1735,-28.4884 -53.5044,-28.4884 -19.9844,0 -37.9846,9.00007 -54.0004,27.0002 -14.6694,16.0159 -22.6419,34.3349 -23.9884,54.9926z"
     id="path61" /></glyph>
   <glyph
   unicode="1"
   horiz-adv-x="282"
   id="glyph63"><path
     d="M251.01 12.0001l-171.001 -66.9927c-19.3466,67.3234 -29.0081,159.993 -29.0081,277.986 0,192.663 32.0081,393.003 96.0008,600.997l66.9927 -21.9923c-29.3388,-81.9928 -43.9846,-188.34 -43.9846,-318.995 0,-157.348 27.0002,-314.341 81.0006,-471.004z"
     id="path65" /></glyph>
   <glyph
   unicode="C"
   horiz-adv-x="864"
   id="glyph67"><path
     d="M845.015 705.017l-100.028 -164.021c-49.3232,108.674 -135.001,162.993 -256.998,162.993 -38.6578,0 -72.3195,-4.64177 -100.985,-13.9962 23.3151,27.3545 46.3468,54.3548 68.9887,81.0006 22.0041,20.0198 52.3351,30.012 90.9928,30.012 90.0007,0 189.356,-31.9963 298.03,-95.9889zm38.9767 -571.008c-48.65,-55.3469 -106.335,-98.3275 -172.986,-129.013 -66.6856,-30.6498 -136.666,-45.9925 -210.013,-45.9925 -134.009,0 -245.978,34.6538 -335.979,103.997 -98.6819,76.0045 -148.005,179.009 -148.005,309.014 0,89.3275 40.3232,178.655 121.005,267.982 82.666,92.6582 167.316,137.659 253.986,135.001l9.9922 0c-135.32,-116.682 -202.998,-239.317 -202.998,-368.011 0,-97.9732 33.0239,-181.49 99.0008,-250.478 66.0123,-69.0242 148.005,-103.501 246.014,-103.501 106.654,0 210.332,51.6618 310.999,154.985l28.9845 -73.9848z"
     id="path69" /></glyph>
   <glyph
   unicode="F"
   horiz-adv-x="684"
   id="glyph71"><path
     d="M733.01 760.01c-0.673234,-43.335 -32.3506,-101.339 -94.9968,-174.013 -34.6892,30.6853 -76.3589,55.4886 -125.009,74.5163 -48.6854,18.9923 -95.67,28.4884 -140.989,28.4884 -53.3626,0 -103.678,-12.6851 -151.017,-37.9846l9.9922 78.9809c72.0006,37.9846 167.352,57.0123 286.018,57.0123 71.3273,0 143.328,-9.00007 216.002,-27.0002zm-224.01 -288.002l-89.0086 -159.025c-24.6616,54.0004 -84.6503,81.0006 -180.001,81.0006 -13.3229,0 -26.327,-0.6378 -38.9767,-1.98427l9.9922 75.0124c53.3272,22.6419 107.009,33.9806 161.009,33.9806 55.9847,0 101.658,-9.6733 136.985,-28.9845zm-283.006 -467.012l-184.005 -80.0085c-18.6379,87.3432 -27.9923,177.344 -27.9923,270.002 0,101.339 10.6654,204.663 31.9963,310.006 22.6773,112.678 54.3548,211.006 94.9968,295.018l45.0004 -35.0081c-20.6576,-58.0044 -31.0042,-134.328 -31.0042,-229.006 0,-164.659 23.6695,-341.684 71.0084,-531.004z"
     id="path73" /></glyph>
   <glyph
   unicode="O"
   horiz-adv-x="1045"
   id="glyph75"><path
     d="M1025.02 444.972c0,-93.3314 -32.3152,-182.978 -97.0165,-268.939 -60.6619,-82.0636 -135.355,-142.371 -224.01,-181.064 99.3551,116.717 149.033,241.726 149.033,375.027 0,93.3314 -34.016,178.513 -102.048,255.474 -67.9612,77.0321 -147.615,115.513 -238.963,115.513 -30.6853,0 -61.0162,-5.315 -90.9928,-16.0159l93.9692 90.0007c27.3545,3.4016 54.0004,5.03154 80.0085,5.03154 114.025,0 212.671,-33.6617 296.01,-100.985 89.292,-71.3628 134.009,-162.71 134.009,-274.042zm-336.05 -360.995l-64.9848 -103.961c-56.6225,-12.0473 -110.623,-18.0001 -162.001,-18.0001 -121.324,0 -221.317,32.3152 -299.979,97.0165 -84.6857,69.3076 -126.993,163.631 -126.993,282.971 0,98.0086 39.331,193.82 117.993,287.506 78.662,93.6858 166.324,147.19 262.986,160.513 -63.9926,-50.0319 -113.67,-108.993 -148.962,-177.025 -36.709,-70.0163 -54.9926,-144.355 -54.9926,-223.018 0,-100.631 31.8191,-181.348 95.4574,-242.01 63.7092,-60.6619 146.198,-90.9928 247.537,-90.9928 57.969,0 102.615,9.00007 133.938,27.0002z"
     id="path77" /></glyph>
   <glyph
   unicode="N"
   horiz-adv-x="877"
   id="glyph79"><path
     d="M851.995 525.016c0,-176.671 -42.6618,-364.999 -127.985,-565.02l-70.0163 25.0159c35.327,81.9928 53.0083,174.332 53.0083,276.982 0,128.658 -21.012,246.687 -63.0005,354.015 -25.3348,11.3387 -54.0004,17.008 -85.9967,17.008 -98.6819,0 -207.321,-39.0121 -325.987,-117.001l4.9961 79.9731c70.6541,63.3548 151.655,115.69 243.002,157.005 97.9732,44.6815 190.986,68.6698 278.967,72.0006 62.0084,-67.9966 93.0125,-167.99 93.0125,-299.979zm-580.009 -520.02l-189.001 -80.0085c-23.3151,84.0125 -34.9727,187.69 -34.9727,310.999 0,210.013 42.9807,404.684 128.977,584.012l49.9965 -40.0043c-30.6498,-100.666 -45.9925,-216.675 -45.9925,-347.991 0,-162.001 30.3309,-304.337 90.9928,-427.007z"
     id="path81" /></glyph>
   <glyph
   unicode="E"
   horiz-adv-x="837"
   id="glyph83"><path
     d="M823.01 689.994l-103.997 -144.001c-17.3623,55.3469 -56.339,97.3354 -117.001,126.001 -50.6697,24.0238 -109.347,36.0003 -175.997,36.0003 -17.3623,0 -34.016,-0.992134 -50.0319,-2.9764 27.3545,21.9687 54.6737,43.6539 82.0282,64.9848 25.3348,15.9804 56.9768,23.9884 94.9968,23.9884 45.9925,0 94.0047,-9.9922 144.001,-29.9766 47.9768,-18.6734 90.0007,-43.335 126.001,-74.0203zm-247.998 -238.006l-90.0007 -139.005c-15.3426,38.6932 -62.6816,58.0044 -142.017,58.0044 -33.9806,0 -66.0123,-2.9764 -95.9889,-9.00007l9.9922 70.0163c61.3351,34.6538 122.67,51.9807 184.005,51.9807 54.6737,0 99.3197,-10.6654 134.009,-31.9963zm272.979 -362.979c-93.3314,-88.6897 -207.321,-133.017 -342.003,-133.017 -136.666,0 -248.99,32.3506 -336.971,97.0165 -98.6819,72.0006 -148.005,173.978 -148.005,306.002 0,100.666 34.6538,192.651 103.997,275.99 73.9848,88.6542 160.974,133.655 261.002,135.001 -59.3509,-48.6854 -105.024,-108.674 -137.021,-180.001 -30.6498,-68.6698 -45.9925,-142.336 -45.9925,-220.998 0,-101.339 28.1695,-181.986 84.5085,-242.01 56.339,-59.9887 134.505,-90.0007 234.498,-90.0007 58.6776,0 113.67,11.0198 165.013,33.0239 57.3312,24.6616 100.985,59.3154 130.997,103.997l29.9766 -85.0046z"
     id="path85" /></glyph>
   <glyph
   unicode="I"
   horiz-adv-x="292"
   id="glyph87"><path
     d="M252.994 17.008l-168.982 -79.0164c-22.0041,74.0203 -33.0239,163.667 -33.0239,269.01 0,227.34 32.3506,438.984 97.0165,635.001l80.0085 -35.0081c-27.3545,-83.3392 -40.9964,-181.986 -40.9964,-296.01 0,-173.305 21.9687,-337.999 65.9769,-493.976z"
     id="path89" /></glyph>
   <glyph
   unicode="M"
   horiz-adv-x="1025"
   id="glyph91"><path
     d="M992.998 348.999c0,-158.002 -38.6643,-293.327 -115.993,-406.004l-64.0059 59.017c38.0124,75.3161 57.0044,164.323 57.0044,266.994 0,115.341 -30.6707,221.98 -92.012,320.001l-108.991 -55.0201 -54.9918 79.0011c72.6515,79.3412 163.671,152.333 273.003,219.003 70.6673,-149.328 105.987,-310.335 105.987,-482.992zm-359.006 144.991l-108.991 -173.989c-23.329,76.6767 -56.3241,149.328 -99.0135,218.011 -48.6422,79.3129 -101.99,137.65 -159.986,174.982l29.9904 79.0011c68.0027,-23.981 132.689,-63.3256 194.002,-118.006 61.3413,-54.6516 109.332,-114.661 143.999,-179.999zm-342.99 -461.988l-183.996 -93.9963c-38.0124,128.664 -57.0044,266.994 -57.0044,414.99 0,212.002 50.6548,373.349 151.993,484.013l53.9997 -30.0187c-49.3225,-117.325 -73.9838,-246.981 -73.9838,-388.996 0,-149.98 36.3116,-278.672 108.991,-385.991z"
     id="path93" /></glyph>
   <glyph
   unicode="L"
   horiz-adv-x="694"
   id="glyph95"><path
     d="M707.002 256.006l-59.9887 -269.01c-45.3547,-15.3426 -99.674,-22.9962 -163.029,-22.9962 -67.3234,0 -130.643,10.9843 -189.994,32.9884l-35.0081 110.021c32.6695,-14.6694 73.347,-22.0041 122.032,-22.0041 123.308,0 231.982,57.0123 325.987,171.001zm-453.015 -229.006l-202.998 -64.9848c-12.6497,94.6425 -18.9923,189.001 -18.9923,282.971 0,248.671 32.6695,452.696 98.0086,612.005l64.9848 -40.0043c-24.6616,-89.3275 -36.9924,-184.324 -36.9924,-284.99 0,-187.336 31.9963,-355.68 95.9889,-504.996z"
     id="path97" /></glyph>
   <glyph
   unicode="G"
   horiz-adv-x="928"
   id="glyph99"><path
     d="M852.996 733.006l-104.002 -149.016c-25.9935,49.3509 -64.998,88.0152 -116.985,116.021 -49.3509,25.3132 -103.351,37.984 -161.999,37.984 -21.9967,0 -43.3415,-1.67243 -64.0059,-4.98894l73.9838 89.0073c31.351,3.99683 61.3413,5.98106 89.9994,5.98106 52.0154,0 102.67,-7.00153 152.021,-21.0046 58.6484,-17.3196 102.33,-41.9808 130.988,-73.9838zm68.9948 -592.012l-48.9824 0c-52.6674,-59.3288 -114.009,-100.658 -183.996,-123.987 34.6675,59.9807 51.9871,120.982 51.9871,183.004 0,84.642 -40.6769,142.979 -122.002,174.982l284.001 84.0184 18.992 -318.017zm-257.979 -64.0059c1.33228,-52.6674 -20.3526,-87.6467 -64.998,-104.995 -26.6738,-10.6582 -71.0074,-15.9873 -133.001,-15.9873 -121.35,0 -221.668,27.3258 -301.009,82.0058 -91.3317,61.9933 -136.998,151.001 -136.998,266.994 0,122.002 35.1494,228.981 105.505,320.993 70.3271,92.012 164.493,152.333 282.499,180.991 -65.3382,-57.3162 -116.021,-123.335 -152.021,-197.999 -38.6643,-77.9806 -57.9965,-158.654 -57.9965,-241.992 0,-87.3349 28.6864,-161.659 86.0026,-223 58.6768,-63.3256 131.328,-94.9884 218.011,-94.9884 47.9902,0 99.3254,9.32593 154.005,27.9778z"
     id="path101" /></glyph>
   <glyph
   unicode="S"
   horiz-adv-x="780"
   id="glyph103"><path
     d="M707.013 734.991l-99.0135 -133.993c-52.6674,62.6736 -123.335,93.9963 -212.002,93.9963 -20.6644,0 -37.984,-1.67243 -51.9871,-4.98894 26.6455,25.3416 53.3193,50.6548 79.9932,75.9964 24.0093,17.3196 56.3241,25.9935 97.001,25.9935 65.9901,0 127.983,-18.992 186.008,-57.0044zm69.987 -516.979c0,-73.3318 -38.0124,-134.333 -114.009,-183.004 -65.9901,-43.3415 -137.338,-64.998 -213.986,-64.998 36.6517,19.3322 68.6547,43.0013 96.0088,70.9791 35.3195,35.9998 52.9792,70.3555 52.9792,103.01 0,41.3289 -43.9934,81.6656 -131.98,121.01 -81.3538,35.9998 -163.019,71.9995 -245.025,107.999 -87.3349,49.3225 -130.988,106.979 -130.988,172.997 0,47.9902 33.6754,95.6687 100.998,143.007 54.68,38.6643 110.664,65.65 168.008,80.9853 -73.3318,-49.3225 -110.012,-97.3411 -110.012,-143.999 0,-38.0124 45.6659,-81.6656 136.998,-130.988 84.6703,-42.6895 169.341,-85.3506 254.011,-128.012 91.3317,-52.6674 136.998,-102.33 136.998,-148.988zm-283.009 -174.018c-28.6581,-17.9999 -57.0044,-36.3399 -84.9821,-54.9918 -34.0155,-20.0125 -65.6783,-29.9904 -95.0167,-29.9904 -43.9934,0 -95.3285,13.6629 -154.005,40.9887 -49.3225,23.329 -95.6403,51.3351 -138.982,83.99l129.996 154.005c34.6675,-55.3319 79.653,-100.998 135.013,-136.998 59.9807,-38.6643 120.642,-57.9965 181.983,-57.9965 8.67396,0 17.3479,0.340155 25.9935,0.99212z"
     id="path105" /></glyph>
   <glyph
   unicode="Z"
   horiz-adv-x="822"
   id="glyph107"><path
     d="M730.002 727.989c-28.6581,-107.999 -78.009,-209.649 -147.996,-304.978 -74.0121,-102.018 -157.662,-177.023 -251.006,-225.013l-58.9886 53.0075c125.999,147.996 195.334,266.001 207.977,353.988 -71.9995,38.6643 -153.665,57.9965 -244.997,57.9965 -50.0028,0 -92.3238,-4.64879 -126.991,-14.0031l-10.9984 79.0011c87.3349,40.6769 185.668,61.0012 295,61.0012 124.667,0 237.343,-20.3243 338.001,-61.0012zm97.001 -625.999c-65.9901,-43.3131 -142.015,-77.9806 -227.989,-104.002 -86.0026,-25.9935 -168.349,-38.9761 -247.009,-38.9761 -130.676,0 -247.009,36.3116 -348.999,108.991 60.661,22.677 133.993,72.3397 219.995,148.988 45.3257,-39.3163 97.9931,-70.9791 158.002,-94.9884 62.6736,-25.9935 122.343,-39.0045 179.007,-39.0045 81.3255,0 154.317,25.9935 219.003,78.009l47.9902 -59.017z"
     id="path109" /></glyph>
   <glyph
   unicode="V"
   horiz-adv-x="846"
   id="glyph111"><path
     d="M839.983 653.001c0,-231.344 -72.0006,-410.318 -215.966,-536.992l-15.0237 112.005c48.6854,66.6501 72.9927,153.001 72.9927,258.982 0,88.6542 -21.9687,177.663 -65.9769,266.99l204.982 89.0086c12.6851,-52.654 18.9923,-116.009 18.9923,-189.994zm-255.971 -566.012c0,-67.9966 -80.0085,-126.32 -240.026,-175.005 16.0159,60.0241 24.0238,131.351 24.0238,214.017 0,138.651 -28.0278,261.675 -84.0125,369.003 -59.3154,113.989 -147.332,202.679 -264.014,265.998l52.0162 59.9887c142.655,-80.6463 260.329,-182.34 352.987,-304.975 106.017,-139.359 159.025,-282.333 159.025,-429.027z"
     id="path113" /></glyph>
   <glyph
   unicode="R"
   horiz-adv-x="940"
   id="glyph115"><path
     d="M707.994 661.009c0,-91.3472 -60.6619,-161.009 -181.986,-209.021 -89.3275,-35.327 -187.69,-53.6461 -295.018,-54.9926l4.9961 75.0124c8.68117,-5.35044 21.012,-8.00794 37.0279,-8.00794 51.3075,0 103.997,14.9883 157.997,45.0004 61.9729,34.6538 92.9771,75.3313 92.9771,121.997 0,26.0081 -16.6537,46.6657 -49.9965,62.0084 -26.0081,12.0119 -54.0004,18.0001 -83.977,18.0001 -46.0279,0 -100.666,-10.3465 -164.021,-31.0042l9.9922 70.0163c19.3466,17.9647 59.3509,32.6341 120.013,43.9728 48.6854,9.3544 93.0125,13.9962 133.017,13.9962 145.985,0 218.978,-49.0043 218.978,-146.978zm238.006 -656.013l-224.01 -75.0124c4.6772,18.0001 7.0158,36.0003 7.0158,54.0004 0,70.6895 -33.6617,146.021 -101.02,226.029 -54.6382,64.6659 -119.304,120.332 -193.998,166.997 66.6856,16.6537 100.028,24.9805 100.028,24.9805 80.6463,0 165.332,-47.339 253.986,-141.981 77.9888,-84.0125 130.678,-169.017 157.997,-255.014zm-690.986 9.9922l-169.017 -85.0046c-36.0003,120.013 -54.0004,258.699 -54.0004,416.023 0,175.997 29.6577,333.995 89.0086,473.992l75.0124 -35.0081c-23.3506,-86.67 -35.0081,-189.32 -35.0081,-307.987 0,-172.667 31.3231,-326.66 94.0047,-462.015z"
     id="path117" /></glyph>
   <glyph
   unicode="k"
   horiz-adv-x="641"
   id="glyph119"><path
     d="M644.991 35.0077l-154.005 -80.0215c-16.6393,76.0247 -51.4768,147.684 -104.484,215.007 -53.0075,67.3508 -114.179,118.686 -183.514,154.005l239.016 219.995 43.0013 -43.0013 -140.994 -170.985c68.6547,-35.9998 129.656,-76.6767 183.004,-122.002 74.6641,-62.6736 113.98,-120.33 117.977,-172.997zm-447.985 -6.00941l-154.005 -74.0121c-11.3385,64.0059 -17.0078,145.672 -17.0078,245.025 0,219.995 34.3273,428.993 103.01,626.991l61.9933 -25.0014c-28.0061,-87.3349 -42.0092,-204.348 -42.0092,-351.012 0,-137.99 16.0156,-278.644 48.0186,-421.991z"
     id="path121" /></glyph>
   <glyph
   unicode="b"
   horiz-adv-x="576"
   id="glyph123"><path
     d="M255.003 752.991c-43.9934,-71.9995 -77.3286,-163.331 -100.006,-273.995 -20.6644,-97.3411 -31.0108,-197.999 -31.0108,-302.001 0,-28.0061 0.680311,-54.6516 2.01259,-79.9932l-72.9917 11.9905c-12.0188,87.3349 -17.9999,175.662 -17.9999,265.009 0,180.679 17.9999,331.68 53.9997,453.002 77.3286,-12.6708 132.661,-37.332 165.996,-74.0121zm312.007 -461.988c0,-88.6672 -50.6831,-165.344 -152.021,-230.002 -89.9994,-56.6642 -181.983,-85.0105 -275.979,-85.0105 -20.6644,0 -41.3572,1.33228 -62.0217,3.99683l0 80.0215c13.3511,-2.66455 27.666,-3.99683 43.0013,-3.99683 71.3476,0 138.018,22.3085 200.011,66.9823 68.0027,48.6706 101.99,107.347 101.99,176.002 0,32.6833 -12.9826,59.3288 -39.0045,79.9932 -25.9935,20.6644 -55.9839,31.0108 -89.9994,31.0108 -33.3069,0 -64.3177,-12.3306 -92.9758,-36.9919l11.9905 79.0011c54.6516,33.3352 105.335,50.0028 151.993,50.0028 53.3477,0 100.516,-21.855 141.505,-65.5082 40.9887,-43.6816 61.5114,-92.1821 61.5114,-145.501z"
     id="path125" /></glyph>
   <glyph
   unicode="g"
   horiz-adv-x="600"
   id="glyph127"><path
     d="M631.989 617.993c0,-87.981 -38.3389,-131.989 -114.981,-131.989 -6.66147,0 -24.3427,8.00794 -53.0083,23.9884 33.3428,9.9922 49.9965,48.6854 49.9965,116.009 0,9.31897 -0.3189,17.6812 -0.992134,25.0159l116.009 0c1.98427,-9.3544 2.9764,-20.3387 2.9764,-33.0239zm-82.9849 -285.983c0,-58.6776 -20.3387,-111.686 -61.0162,-159.025 -42.6618,-49.9965 -92.3039,-72.9927 -148.997,-68.9887l-17.008 0.992134 0 74.0203c32.0317,-2.69293 56.339,13.3229 73.0281,47.9768 12.6497,26.6813 18.9923,57.6855 18.9923,93.0125 0,50.6697 -29.6577,89.0086 -89.0086,115.017 -47.339,19.9844 -99.3197,28.6656 -155.978,25.9726l159.982 55.028c50.6697,0 99.3197,-17.6812 145.985,-53.0083 49.3587,-38.02 74.0203,-81.6739 74.0203,-130.997zm-361.987 -135.001l-79.0164 -98.0086c-26.6813,8.68117 -46.9846,27.6734 -61.0162,57.0123 -12.6497,25.3348 -18.9923,53.3272 -18.9923,83.977 0,47.339 12.3308,86.3511 36.9924,117.001 26.6813,34.016 62.6816,50.3508 108.001,49.0043l8.00794 0c-20.6576,-39.331 -31.0042,-78.9809 -31.0042,-118.985 0,-38.6932 12.3308,-68.6698 37.0279,-90.0007zm361.987 -404.011c0,-32.6695 -9.9922,-62.0084 -30.012,-87.981 -21.3309,-28.0278 -47.6579,-41.6696 -78.9809,-41.0318l-13.004 0c29.9766,26.6813 45.0004,55.028 45.0004,85.0046 0,27.9923 -27.6734,59.6698 -83.0203,94.9968 -50.6697,30.6853 -101.304,61.6895 -151.974,93.0125 -55.3469,39.331 -83.0203,78.662 -83.0203,117.993 0,13.9962 14.3505,43.0161 43.0161,87.0243 19.3112,28.6656 38.6578,57.3312 58.0044,85.9967l36.9924 -18.0001c-18.0001,-26.0081 -27.0002,-54.0004 -27.0002,-84.0125 0,-36.6735 23.9884,-72.6738 72.0006,-108.001 40.0043,-23.9884 80.0085,-48.0122 119.977,-72.0006 8.68117,-1.98427 20.6931,-6.66147 36.0003,-13.9962 37.3468,-23.9884 56.0201,-70.3352 56.0201,-139.005zm-158.989 -104.989c-24.697,-34.016 -62.6816,-51.024 -114.025,-51.024 -72.0006,0 -150.663,25.3348 -235.986,76.0045l98.0086 165.013c16.6537,-51.3429 42.3074,-95.3511 76.9967,-131.989 40.6421,-42.024 85.3235,-63.0005 133.973,-63.0005 13.3584,0 27.0002,1.66537 41.0318,4.9961z"
     id="path129" /></glyph>
   <glyph
   unicode="f"
   horiz-adv-x="404"
   id="glyph131"><path
     d="M420.984 489.016l-85.9967 -141.025c-3.33073,34.6892 -32.9884,52.0162 -88.9731,52.0162 -11.3387,0 -22.6773,-0.992134 -34.016,-3.01183l18.0001 80.0085c38.6578,22.0041 76.3234,32.9884 112.997,32.9884 32.6695,0 58.6776,-6.98037 77.9888,-20.9765zm-6.98037 318.971c-15.3426,-73.9848 -31.6774,-117.001 -49.0043,-128.977 -56.6579,4.64177 -101.658,14.9883 -135.001,31.0042 -44.0082,-58.6776 -66.0123,-146.021 -66.0123,-262.03 0,-138.651 24.3427,-282.333 73.0281,-430.976l-154.029 -80.0085c-30.6498,77.9888 -45.9925,167.316 -45.9925,268.018 0,93.9692 12.0119,193.643 36.0003,298.987 24.0238,102.013 56.0201,197.328 96.0244,285.983 53.3272,25.3348 104.316,38.02 152.966,38.02 38.6932,0 69.3431,-6.66147 92.0204,-20.0198z"
     id="path133" /></glyph>
   <glyph
   unicode="l"
   horiz-adv-x="274"
   id="glyph135"><path
     d="M236.011 791.995c-39.3446,-109.332 -59.017,-241.992 -59.017,-397.982 0,-130.024 17.6597,-255.003 53.0075,-375.021 -36.6801,-36.6517 -93.6561,-54.9918 -171.013,-54.9918 -3.99683,48.6706 -5.98106,108.339 -5.98106,179.007 0,319.321 40.6486,547.99 122.002,685.98l61.0012 -36.9919z"
     id="path137" /></glyph>
   <glyph
   unicode="h"
   horiz-adv-x="617"
   id="glyph139"><path
     d="M577.989 296.01c0,-103.997 -30.3309,-212.671 -90.9928,-326.022l-73.9848 25.0159c18.0001,17.3269 32.3152,45.3193 42.9807,84.0125 8.68117,32.6341 13.004,64.6659 13.004,95.9889 0,32.6695 -5.66934,62.6462 -17.008,90.0007 -3.33073,7.3347 -18.319,35.0081 -45.0004,82.9849 -88.6542,-11.9765 -148.005,-26.327 -177.982,-42.9807l-5.98824 79.9731c43.9728,30.012 91.985,54.3548 143.966,73.0281 57.3666,20.6576 109.666,31.0042 157.005,31.0042 36.0003,-52.0162 54.0004,-116.363 54.0004,-193.005zm-324.003 482c-63.9926,-152.009 -95.9889,-313.337 -95.9889,-484.02 0,-100.666 17.6812,-194.316 53.0083,-280.986l-135.001 -61.0162c-27.3545,79.3353 -40.9964,173.021 -40.9964,281.022 0,206.647 52.654,400.326 157.997,581.001l60.9808 -36.0003z"
     id="path141" /></glyph>
   <glyph
   unicode="d"
   horiz-adv-x="635"
   id="glyph143"><path
     d="M604.995 532.995c0,-137.99 -14.0031,-270.65 -41.9808,-397.982l-86.0026 -13.0109c17.9999,62.6736 26.9857,131.328 26.9857,205.992 0,154.686 -31.3226,298.345 -93.9963,431.005l147.004 79.9932c32.0029,-77.9806 47.9902,-179.999 47.9902,-305.998zm-64.0059 -454.986l-11.9905 -73.02c-62.6736,-19.9841 -126.651,-29.9904 -191.989,-29.9904 -79.3412,0 -148.676,21.0046 -208.005,63.0138 -66.6704,46.658 -100.006,108.311 -100.006,184.988 0,71.3192 37.332,135.665 111.996,193.01 69.335,52.6674 140.994,79.0011 215.007,79.0011 27.3258,0 53.3193,-4.02517 78.009,-12.0188l0 -66.9823c-17.9999,2.66455 -35.3478,3.99683 -52.0154,3.99683 -53.9997,0 -101.338,-17.6597 -141.987,-53.0075 -42.0092,-37.332 -63.0138,-82.3459 -63.0138,-135.013 0,-56.6642 27.014,-99.3254 81.0137,-127.983 42.6611,-23.329 94.9884,-35.0077 156.982,-35.0077 44.0218,0 86.0026,3.00471 125.999,9.01412z"
     id="path145" /></glyph>
   <glyph
   unicode="m"
   horiz-adv-x="900"
   id="glyph147"><path
     d="M846.999 269.01c0,-109.347 -23.9884,-205.691 -72.0006,-288.994l-72.9927 12.9686c22.0041,63.3548 32.9884,127.347 32.9884,192.013 0,78.662 -21.3309,135.32 -63.9926,170.009l-98.0086 5.98824 -24.9805 67.0045c37.9846,28.6656 123.981,59.3509 257.99,91.985 27.3191,-73.3116 40.9964,-156.97 40.9964,-250.974zm-320.991 -13.004c0,-105.343 -18.9923,-201.332 -57.0123,-288.002l-55.9847 31.0042c13.9962,39.331 20.9765,80.0085 20.9765,121.997 0,93.3314 -25.3348,175.324 -76.0045,245.978l-128.977 -5.98824 -12.0119 61.0162c49.9965,49.3232 127.666,85.9967 233.01,109.985 50.6697,-77.9888 76.0045,-170.009 76.0045,-275.99zm-302.991 -157.005c0,-52.654 -2.0197,-98.3275 -6.02367,-136.985l-166.005 48.9689c35.327,58.6776 53.0083,132.344 53.0083,221.033 0,88.6542 -13.3229,172.312 -40.0043,250.974l61.0162 25.0159c65.3391,-81.355 98.0086,-217.667 98.0086,-409.007z"
     id="path149" /></glyph>
   <glyph
   unicode="e"
   horiz-adv-x="647"
   id="glyph151"><path
     d="M594.005 333.003c0,-52.0162 -26.327,-93.6858 -79.0164,-125.009 -45.3193,-26.6459 -95.67,-39.331 -150.982,-37.9846l-34.016 0 -42.9807 85.9967c15.3072,-11.3387 33.9806,-17.008 55.9847,-17.008 24.6616,0 47.6579,7.0158 68.9887,21.012 24.0238,15.3072 36.0003,34.9727 36.0003,58.9965 0,24.6616 -10.1339,45.9925 -30.4727,63.9926 -20.3387,18.0001 -43.1933,28.9845 -68.5281,32.9884 4.00397,17.3623 22.0041,34.3349 54.0004,51.024 28.6656,14.6694 53.3626,22.0041 74.0203,22.0041 33.3428,0 62.0084,-18.3545 85.9967,-55.028 20.6576,-32.6695 31.0042,-66.3312 31.0042,-100.985zm-5.98824 -273.014c-55.3469,-59.9887 -132.698,-90.0007 -232.018,-90.0007 -205.336,0 -307.987,85.0046 -307.987,255.014 0,70.6541 35.327,133.336 105.981,188.009 66.0123,50.6697 135.001,76.0045 207.002,76.0045 -109.312,-84.0125 -163.986,-168.025 -163.986,-252.002 0,-50.6697 17.008,-96.0244 50.9886,-136.029 36.0003,-41.9885 79.0164,-63.0005 129.013,-63.0005 65.3391,0 129.332,34.016 191.978,102.013l19.0277 -80.0085z"
     id="path153" /></glyph>
   <glyph
   unicode="a"
   horiz-adv-x="656"
   id="glyph155"><path
     d="M660.017 -8.00794c-22.0041,-8.00794 -43.0161,-11.9765 -63.0005,-11.9765 -68.032,0 -112.005,30.9687 -132.025,92.9771 -10.6654,63.9926 -21.3309,128.021 -31.9963,192.013 -17.3269,78.662 -55.3115,130.997 -113.989,157.005l130.997 54.9926c51.3429,-19.3466 85.6778,-70.6541 103.005,-153.993 9.31897,-72.0006 18.6734,-144.001 27.9923,-216.002 12.0119,-74.0203 38.3389,-112.359 79.0164,-115.017zm-290.022 491c-69.9809,-16.6537 -155.659,-67.6423 -256.998,-153.001l-69.9809 80.0085c25.9726,28.6656 59.1383,51.839 99.4968,69.4848 40.3232,17.6812 79.8313,26.5041 118.489,26.5041 36.6735,0 72.9927,-7.6536 108.993,-22.9962zm45.9925 -441.003c-18.0001,-19.9844 -49.9965,-34.9727 -95.9889,-45.0004 -36.0003,-7.9725 -72.3195,-11.9765 -108.993,-11.9765 -36.0003,0 -71.6817,13.9962 -107.009,41.9885 -37.9846,30.012 -56.339,62.6816 -54.9926,98.0086 1.34647,46.6657 31.3231,87.981 90.0007,123.981 52.654,32.6695 103.678,49.0043 153.001,49.0043 31.9963,0 63.9926,-5.66934 95.9889,-17.008l-1.98427 -61.9729c-8.00794,1.98427 -17.3269,2.9764 -28.0278,2.9764 -31.3231,0 -63.0005,-6.66147 -94.9968,-19.9844 -39.331,-17.3269 -59.3154,-39.6854 -59.9887,-67.0045 -0.673234,-21.3309 7.0158,-39.5082 22.9962,-54.4965 16.0159,-14.9883 34.3349,-22.5002 54.9926,-22.5002 32.6695,0 70.3352,17.008 112.997,50.9886l22.0041 -67.0045z"
     id="path157" /></glyph>
   <glyph
   unicode="c"
   horiz-adv-x="590"
   id="glyph159"><path
     d="M546.985 427.999l-109.985 -98.0086c-12.0119,25.3348 -30.012,46.3468 -54.0004,63.0005 -23.9884,16.6891 -49.6776,25.0159 -76.9967,25.0159 -8.00794,0 -15.6615,-0.673234 -22.9962,-2.0197l80.0085 79.0164c12.6497,2.6575 25.3348,4.00397 37.9846,4.00397 59.3509,0 108.001,-23.6695 145.985,-71.0084zm6.02367 -355.999c-22.6773,-27.9923 -62.6816,-50.6697 -120.013,-67.9966 -48.0122,-13.9962 -94.6779,-21.012 -139.997,-21.012 -73.347,0 -133.336,18.9923 -180.001,57.0123 -49.9965,40.6775 -75.0124,96.6622 -75.0124,167.99 0,76.0045 26.0081,140.67 78.0242,193.998 45.9925,47.339 108.001,82.666 185.99,106.017 -32.6695,-32.6695 -60.6619,-72.3549 -84.0125,-119.021 -25.9726,-51.3075 -38.9767,-97.6543 -38.9767,-138.97 0,-38.6932 17.3269,-78.0242 51.9807,-118.028 34.6892,-40.0043 71.3273,-59.9887 110.021,-59.9887 86.67,0 149.316,30.6498 187.974,91.985l24.0238 -91.985z"
     id="path161" /></glyph>
   <glyph
   unicode="o"
   horiz-adv-x="616"
   id="glyph163"><path
     d="M591.985 256.006c0,-66.6856 -28.9845,-126.001 -86.9889,-178.017 -51.3429,-46.6657 -112.005,-77.3156 -181.986,-91.985 34.6538,26.6459 63.3194,59.9887 85.9967,99.9929 23.9884,42.6618 36.0003,85.0046 36.0003,126.993 0,45.3547 -9.3544,91.3472 -27.9923,138.013 -24.0238,59.3154 -55.3469,86.9889 -94.0047,82.9849l72.9927 55.028c61.3351,-5.35044 109.985,-30.3664 145.985,-75.0124 33.3428,-42.6618 49.9965,-95.3511 49.9965,-157.997zm-268.975 -196.017l-74.0203 -67.9966c-58.0044,-1.98427 -106.973,19.6655 -146.978,65.0202 -37.3468,42.6618 -56.0201,93.3314 -56.0201,151.974 0,82.0282 25.0159,148.997 75.0124,201.013 48.0122,50.6697 112.997,81.0006 194.99,90.9928 -48.65,-60.6619 -78.9809,-101.977 -90.9928,-123.981 -21.3309,-41.3507 -31.9963,-92.0204 -31.9963,-152.009 0,-44.0082 7.6536,-81.0006 22.9962,-111.013 19.3466,-37.3113 48.0122,-55.9847 85.9967,-55.9847 6.66147,0 13.6773,0.673234 21.012,1.98427z"
     id="path165" /></glyph>
   <glyph
   unicode="n"
   horiz-adv-x="617"
   id="glyph167"><path
     d="M562.008 297.002c0,-116.009 -20.3387,-226.348 -61.0162,-331.018l-67.9966 24.0238c17.3269,37.9846 26.0081,85.9967 26.0081,144.001 0,80.0085 -20.6576,153.32 -62.0084,220.006 -42.6618,8.64574 -80.0085,12.9686 -112.005,12.9686 -24.6616,0 -42.6618,-2.30317 -54.0004,-6.98037l-5.98824 62.0084c91.985,65.9769 180.32,96.9811 265.006,92.9771l22.9962 -0.992134c32.6695,-58.6776 49.0043,-130.997 49.0043,-216.994zm-342.995 -161.009c0,-72.6738 -4.3583,-129.332 -13.004,-170.009l-153.001 55.028c38.6578,107.328 58.0044,214.336 58.0044,320.991 0,63.3194 -7.0158,112.324 -21.012,147.013l72.9927 24.9805c37.3468,-127.312 56.0201,-253.313 56.0201,-378.003z"
     id="path169" /></glyph>
   <glyph
   unicode="i"
   horiz-adv-x="261"
   id="glyph171"><path
     d="M267.982 758.982c0,-20.6576 -6.66147,-38.9767 -19.9844,-54.9926 -14.6694,-18.0001 -31.9963,-27.0002 -51.9807,-27.0002 -15.3426,0 -27.6734,5.8465 -37.0279,17.5041 -9.31897,11.6576 -13.9962,25.1577 -13.9962,40.5003 0,20.0198 7.0158,38.5161 21.012,55.4886 13.9962,17.008 31.0042,25.512 50.9886,25.512 15.3426,0 27.6734,-5.66934 36.9924,-17.008 9.3544,-11.3032 13.9962,-24.6616 13.9962,-40.0043zm-30.9687 -710.97l-147.013 -99.0008c-28.6656,45.9925 -43.0161,118.666 -43.0161,217.986 0,113.989 14.3505,233.683 43.0161,359.011l67.9966 -12.0119c-8.00794,-38.6578 -12.0119,-77.6699 -12.0119,-117.001 0,-59.3154 8.00794,-119.658 24.0238,-180.994 15.9804,-64.6659 38.3389,-120.686 67.0045,-167.99z"
     id="path173" /></glyph>
   <glyph
   unicode="r"
   horiz-adv-x="456"
   id="glyph175"><path
     d="M481.008 485.012l-80.0085 -147.013c-31.9963,27.9923 -71.0084,41.9885 -117.001,41.9885 -33.9806,0 -66.6501,-9.9922 -98.0086,-29.9766l-5.98824 79.9731c86.67,55.3469 162.001,83.0203 225.994,83.0203 32.6695,0 57.6855,-9.3544 75.0124,-27.9923zm-264.014 -441.003l-159.982 -85.9967c-17.3623,72.0006 -26.0081,155.304 -26.0081,249.982 0,116.009 17.008,218.659 50.9886,308.022l61.0162 -25.0159c-15.3426,-39.331 -22.9962,-88.6542 -22.9962,-148.005 0,-108.001 32.3152,-207.675 96.9811,-298.987z"
     id="path177" /></glyph>
   <glyph
   unicode="z"
   horiz-adv-x="612"
   id="glyph179"><path
     d="M545.992 409.007c-25.3348,-58.0044 -117.32,-150.025 -275.99,-275.99l-67.9966 36.9924c65.3391,41.3153 112.678,106.973 141.981,196.974 -54.0004,16.0159 -135.993,24.0238 -245.978,24.0238l-24.0238 67.9966c62.6816,15.9804 131.033,23.9884 205.017,23.9884 114.662,0 203.671,-24.6616 266.99,-73.9848zm61.0162 -337.007c-36.0003,-31.9963 -84.6857,-57.3312 -146.021,-76.0045 -54.6382,-15.9804 -109.312,-23.9884 -163.986,-23.9884 -95.9889,0 -194.99,22.9962 -297.002,68.9887l153.001 99.0008c83.3392,-44.6815 166.005,-67.0045 247.998,-67.0045 65.3391,0 117.674,18.0001 157.005,54.0004l49.0043 -54.9926z"
     id="path181" /></glyph>
   <glyph
   unicode="q"
   horiz-adv-x="622"
   id="glyph183"><path
     d="M585.997 480.016c-40.0043,-130.678 -59.9887,-275.353 -59.9887,-434.023 0,-115.336 13.9962,-220.006 41.9885,-313.975l-153.993 -111.013c-14.6694,63.9926 -22.0041,145.985 -22.0041,245.978 0,225.356 46.3468,440.011 139.005,644.001l54.9926 -30.9687zm-122.989 0l-36.9924 -68.032c-23.3506,10.6654 -46.0279,16.0159 -68.032,16.0159 -49.9965,0 -91.6661,-26.6813 -124.973,-80.0085 -29.3388,-45.9925 -44.0082,-95.9889 -44.0082,-149.989 0,-37.3468 10.8426,-67.9966 32.4924,-91.985 21.6852,-24.0238 51.1658,-36.0003 88.5125,-36.0003 19.3112,0 33.6617,3.64964 42.9807,10.9843l0 -85.9967c-27.9923,-9.9922 -55.3115,-14.9883 -81.9928,-14.9883 -63.9926,0 -118.985,24.1655 -164.978,72.4966 -46.0279,48.3311 -69.0242,104.812 -69.0242,169.478 0,74.6935 28.3467,141.663 85.0046,201.013 56.6579,59.3154 122.351,89.0086 197.009,89.0086 52.654,0 100.666,-10.6654 144.001,-31.9963z"
     id="path185" /></glyph>
   <glyph
   unicode="s"
   horiz-adv-x="510"
   id="glyph187"><path
     d="M435.015 462.015l-61.0162 -89.0086c-16.0159,36.6735 -54.6737,59.3154 -116.009,67.9966l43.0161 49.0043c21.3309,2.6575 36.9924,4.00397 46.9846,4.00397 23.3506,0 52.3351,-10.6654 87.0243,-31.9963zm36.9924 -317.022c0,-44.0082 -23.6695,-80.3274 -71.0084,-108.993 -37.3468,-22.6773 -81.0006,-36.9924 -130.997,-43.0161 49.3232,36.6735 73.9848,75.3667 73.9848,116.009 0,35.327 -24.6616,65.3391 -73.9848,90.0007 -45.9925,20.0198 -91.985,40.0043 -138.013,59.9887 -49.3232,26.0081 -73.9848,58.6776 -73.9848,98.0086 0,36.6735 17.3269,69.0242 51.9807,97.0165 32.6695,26.6459 68.032,40.0043 106.017,40.0043 12.0119,0 23.9884,-1.34647 36.0003,-4.00397 -36.6735,-34.016 -54.9926,-63.6737 -54.9926,-89.0086 0,-19.3466 23.6695,-40.3232 70.973,-63.0005 71.3628,-33.3428 115.336,-56.339 132.025,-68.9887 47.9768,-34.016 72.0006,-75.3313 72.0006,-124.017zm-207.994 -85.0046c-13.3584,-12.6497 -26.6813,-25.6537 -40.0043,-38.9767 -19.3466,-17.3623 -34.6892,-26.0081 -45.9925,-26.0081 -38.02,0 -97.3354,25.6537 -178.017,76.9967l91.985 91.985c49.3587,-61.3351 106.69,-95.9889 172.029,-103.997z"
     id="path189" /></glyph>
   <glyph
   unicode="u"
   horiz-adv-x="586"
   id="glyph191"><path
     d="M553.008 464.992c-46.6657,-78.662 -70.0163,-176.671 -70.0163,-293.991 0,-47.339 4.9961,-94.6779 15.0237,-142.017l-67.0045 -30.9687c-37.3468,87.981 -56.0201,187.655 -56.0201,298.987 0,85.3235 14.3505,163.667 43.0161,234.994l135.001 -67.0045zm-189.994 -380.979c-57.3312,-44.6815 -149.352,-77.351 -276.026,-98.0086 -24.6616,66.6501 -36.9924,147.013 -36.9924,240.982 0,106.69 20.6576,206.364 62.0084,299.022l54.9926 -43.0161c-4.00397,-33.9806 -5.98824,-69.9809 -5.98824,-108.001 0,-103.324 16.3348,-179.647 49.0043,-229.006l128.977 12.0119 24.0238 -73.9848z"
     id="path193" /></glyph>
   <glyph
   unicode="p"
   horiz-adv-x="599"
   id="glyph195"><path
     d="M576.005 258.982c0,-59.3154 -36.9924,-116.647 -111.013,-171.993 -69.3076,-52.654 -134.328,-78.9809 -194.99,-78.9809 -18.6734,0 -40.0043,1.98427 -63.9926,5.98824l-6.02367 72.9927c20.6931,-5.315 40.6775,-7.9725 60.0241,-7.9725 50.6697,0 92.6582,24.3073 126.001,72.9927 29.3388,44.0082 43.9728,92.6582 43.9728,145.985 0,31.3231 -12.6497,58.8548 -37.9846,82.4888 -25.3348,23.6695 -53.6815,35.5042 -85.0046,35.5042 -30.6498,0 -64.3115,-9.31897 -100.985,-27.9923l6.98037 80.0085c45.9925,27.9923 90.6739,41.9885 134.009,41.9885 60.6619,0 113.989,-26.5041 160.017,-79.477 45.9925,-53.0083 68.9887,-110.198 68.9887,-171.533zm-376.019 -526.965l-153.001 -74.0203c-10.6654,75.3313 -15.9804,169.336 -15.9804,282.014 0,211.998 23.6695,408.334 71.0084,588.973l67.9966 -24.9805c-18.6734,-91.3472 -27.9923,-200.34 -27.9923,-327.014 0,-162.639 19.3112,-310.999 57.969,-444.972z"
     id="path197" /></glyph>
   <glyph
   unicode="t"
   horiz-adv-x="447"
   id="glyph199"><path
     d="M436.007 464.992l-36.9924 -91.985 -103.005 32.9884 4.9961 65.0202 135.001 -6.02367zm-49.9965 -349.975c-77.351,-77.351 -153.001,-120.013 -227.021,-128.021 -22.0041,63.9926 -32.9884,143.009 -32.9884,237.014 0,64.6659 4.9961,125.328 14.9883,181.986l-133.973 -4.00397 -7.0158 75.0124 158.989 24.9805c16.6891,66.6856 37.3468,140.351 62.0084,221.033l72.9927 -25.0159c-33.9806,-95.9889 -50.9886,-201.332 -50.9886,-315.995 0,-93.3314 9.00007,-174.013 27.0002,-242.01l91.985 36.9924 24.0238 -61.9729z"
     id="path201" /></glyph>
   <glyph
   unicode="v"
   horiz-adv-x="516"
   id="glyph203"><path
     d="M498.016 482.992c-12.6851,-77.9888 -53.6815,-175.997 -123.025,-293.991l-72.9927 72.9927c33.3428,26.6813 80.3274,110.658 140.989,252.002l55.028 -31.0042zm-147.013 -349.975l-103.997 -178.017c-56.0201,70.0163 -103.005,152.328 -140.989,247.006 -38.02,94.6779 -60.6973,186.344 -68.032,274.998l55.028 42.9807c19.9844,-74.6581 52.3351,-146.304 96.9811,-214.974 48.0122,-74.0203 101.658,-131.351 161.009,-171.993z"
     id="path205" /></glyph>
   <glyph
   unicode="  "
   horiz-adv-x="647"
   id="glyph207"><path
     d="M594.005 333.003c0,-52.0162 -26.327,-93.6858 -79.0164,-125.009 -45.9925,-26.6459 -96.3078,-39.331 -150.982,-37.9846l-34.016 0 -42.9807 85.9967c15.3072,-11.3387 33.9806,-17.008 55.9847,-17.008 24.6616,0 47.6579,7.0158 68.9887,21.012 24.0238,15.3072 36.0003,34.9727 36.0003,58.9965 0,24.6616 -10.1339,45.9925 -30.4727,63.9926 -20.3387,18.0001 -43.1933,28.9845 -68.5281,32.9884 4.00397,17.3623 22.0041,34.3349 54.0004,51.024 28.6656,14.6694 53.3626,22.0041 74.0203,22.0041 33.3428,0 62.0084,-18.3545 85.9967,-55.028 20.6576,-32.6695 31.0042,-66.3312 31.0042,-100.985zm-5.98824 -273.014c-55.3469,-59.9887 -132.698,-90.0007 -232.018,-90.0007 -205.336,0 -307.987,85.0046 -307.987,255.014 0,70.6541 35.327,133.336 105.981,188.009 66.0123,50.6697 135.001,76.0045 207.002,76.0045 -109.312,-84.0125 -163.986,-168.025 -163.986,-252.002 0,-50.6697 17.008,-96.0244 50.9886,-136.029 36.0003,-41.9885 79.0164,-63.0005 129.013,-63.0005 65.3391,0 129.332,34.016 191.978,102.013l19.0277 -80.0085zm-403.019 643.009c52.0162,-11.3387 102.686,-28.6656 152.009,-51.9807 55.9847,-26.6813 99.674,-57.3666 130.997,-92.0204 -8.68117,50.6697 -32.6695,97.6543 -72.0006,140.989 -36.6735,41.3507 -80.0085,71.6817 -130.005,91.0283l-81.0006 -88.0164z"
     id="path209" /></glyph>
   <glyph
   unicode="  "
   horiz-adv-x="656"
   id="glyph211"><path
     d="M660.017 -8.00794c-22.0041,-8.00794 -43.0161,-11.9765 -63.0005,-11.9765 -68.032,0 -112.005,30.9687 -132.025,92.9771 -10.6654,63.9926 -21.3309,128.021 -31.9963,192.013 -17.3269,78.662 -55.3115,130.997 -113.989,157.005l130.997 54.9926c51.3429,-19.3466 85.6778,-70.6541 103.005,-153.993 9.31897,-72.0006 18.6734,-144.001 27.9923,-216.002 12.0119,-74.0203 38.3389,-112.359 79.0164,-115.017zm-290.022 491c-69.9809,-16.6537 -155.659,-67.6423 -256.998,-153.001l-69.9809 80.0085c25.9726,28.6656 59.1383,51.839 99.4968,69.4848 40.3232,17.6812 79.8313,26.5041 118.489,26.5041 36.6735,0 72.9927,-7.6536 108.993,-22.9962zm45.9925 -441.003c-18.0001,-19.9844 -49.9965,-34.9727 -95.9889,-45.0004 -36.0003,-7.9725 -72.3195,-11.9765 -108.993,-11.9765 -36.0003,0 -71.6817,13.9962 -107.009,41.9885 -37.9846,30.012 -56.339,62.6816 -54.9926,98.0086 1.34647,46.6657 31.3231,87.981 90.0007,123.981 52.654,32.6695 103.678,49.0043 153.001,49.0043 31.9963,0 63.9926,-5.66934 95.9889,-17.008l-1.98427 -61.9729c-8.00794,1.98427 -17.3269,2.9764 -28.0278,2.9764 -31.3231,0 -63.0005,-6.66147 -94.9968,-19.9844 -39.331,-17.3269 -59.3154,-39.6854 -59.9887,-67.0045 -0.673234,-21.3309 7.0158,-39.5082 22.9962,-54.4965 16.0159,-14.9883 34.3349,-22.5002 54.9926,-22.5002 32.6695,0 70.3352,17.008 112.997,50.9886l22.0041 -67.0045zm-254.978 661.009c51.9807,-11.3387 102.65,-28.6656 151.974,-51.9807 56.0201,-26.6813 99.674,-57.3666 131.033,-92.0204 -8.68117,50.6697 -32.6695,97.6543 -72.0006,140.989 -36.6735,41.3507 -80.0085,71.6817 -130.005,91.0283l-81.0006 -88.0164z"
     id="path213" /></glyph>
   <glyph
   unicode="  "
   horiz-adv-x="647"
   id="glyph215"><path
     d="M594.005 333.003c0,-52.0162 -26.327,-93.6858 -79.0164,-125.009 -45.9925,-26.6459 -96.3078,-39.331 -150.982,-37.9846l-34.016 0 -42.9807 85.9967c15.3072,-11.3387 33.9806,-17.008 55.9847,-17.008 24.6616,0 47.6579,7.0158 68.9887,21.012 24.0238,15.3072 36.0003,34.9727 36.0003,58.9965 0,24.6616 -10.1339,45.9925 -30.4727,63.9926 -20.3387,18.0001 -43.1933,28.9845 -68.5281,32.9884 4.00397,17.3623 22.0041,34.3349 54.0004,51.024 28.6656,14.6694 53.3626,22.0041 74.0203,22.0041 33.3428,0 62.0084,-18.3545 85.9967,-55.028 20.6576,-32.6695 31.0042,-66.3312 31.0042,-100.985zm-5.98824 -273.014c-55.3469,-59.9887 -132.698,-90.0007 -232.018,-90.0007 -205.336,0 -307.987,85.0046 -307.987,255.014 0,70.6541 35.327,133.336 105.981,188.009 66.0123,50.6697 135.001,76.0045 207.002,76.0045 -109.312,-84.0125 -163.986,-168.025 -163.986,-252.002 0,-50.6697 17.008,-96.0244 50.9886,-136.029 36.0003,-41.9885 79.0164,-63.0005 129.013,-63.0005 65.3391,0 129.332,34.016 191.978,102.013l19.0277 -80.0085zm-119.021 616.009c-53.3272,-1.34647 -106.335,-9.31897 -158.989,-23.9884 -59.9887,-16.6891 -108.355,-39.331 -144.993,-67.9966 17.3269,48.65 49.0043,90.9928 94.9968,126.993 43.335,33.9806 91.3117,55.9847 144.001,65.9769l64.9848 -100.985z"
     id="path217" /></glyph>
   <glyph
   unicode="  "
   horiz-adv-x="586"
   id="glyph219"><path
     d="M553.008 464.992c-46.6657,-78.662 -70.0163,-176.671 -70.0163,-293.991 0,-47.339 4.9961,-94.6779 15.0237,-142.017l-67.0045 -30.9687c-37.3468,87.981 -56.0201,187.655 -56.0201,298.987 0,85.3235 14.3505,163.667 43.0161,234.994l135.001 -67.0045zm-189.994 -380.979c-57.3312,-44.6815 -149.352,-77.351 -276.026,-98.0086 -24.6616,66.6501 -36.9924,147.013 -36.9924,240.982 0,106.69 20.6576,206.364 62.0084,299.022l54.9926 -43.0161c-4.00397,-33.9806 -5.98824,-69.9809 -5.98824,-108.001 0,-103.324 16.3348,-179.647 49.0043,-229.006l128.977 12.0119 24.0238 -73.9848zm117.001 527.992c-26.6813,-16.6891 -53.3626,-25.0159 -80.0085,-25.0159 -26.0081,0 -51.5201,7.3347 -76.5006,22.0041 -25.0159,14.6694 -45.1775,33.3428 -60.5202,56.0201 -51.3075,-36.0003 -84.3314,-66.0123 -99.0008,-90.0007l-34.9727 25.9726 165.97 175.005c61.3351,-77.3156 123.025,-131.989 185.033,-163.986z"
     id="path221" /></glyph>
  </font>
  <style
   type="text/css"
   id="style223">
   
    @font-face { font-family:&quot;Chow Fun&quot;;src:url(&quot;#FontID0&quot;) format(svg)}
    .str0 {stroke:#1F1A17;stroke-width:0.0762}
    .str2 {stroke:white;stroke-width:0.0762}
    .str4 {stroke:white;stroke-width:0.1764}
    .str9 {stroke:white;stroke-width:0.1764;stroke-linecap:round;stroke-linejoin:round}
    .str6 {stroke-width:21.5999}
    .str7 {stroke-width:27.0002}
    .str1 {stroke-width:30.8577}
    .str3 {stroke-width:50.0028}
    .str5 {stroke-width:62.5044}
    .str8 {stroke-width:62.5044;stroke-linecap:round;stroke-linejoin:round}
    .fil1 {fill:none}
    .fil5 {fill:#0093DD}
    .fil6 {fill:#1F1A17}
    .fil2 {fill:#7BC4A0}
    .fil4 {fill:#DA251D}
    .fil3 {fill:#FFFCC8}
    .fil0 {fill:white}
    .fnt5 {font-weight:normal;font-size:1.4111;font-family:'Chow Fun'}
    .fnt0 {font-weight:normal;font-size:2.4694;font-family:'Chow Fun'}
    .fnt2 {font-weight:normal;font-size:2.8222;font-family:'Chow Fun'}
    .fnt1 {font-weight:normal;font-size:3.5278;font-family:'Chow Fun'}
    .fnt3 {font-weight:normal;font-size:4.2333;font-family:'Chow Fun'}
    .fnt4 {font-variant:small-caps;font-weight:normal;font-size:2.8222;font-family:'Chow Fun'}
   
  </style>
   <pattern
   id="id0"
   patternUnits="userSpaceOnUse"
   patternTransform="matrix(1 0 0 1 20.9997 19.4997)"
   x="0"
   y="0"
   width="48.0014"
   height="78">
    <image
   x="0"
   y="0"
   width="48.0014"
   height="78"
   href="Carte ETHERLORD - CHAOT_Images\Carte ETHERLORD - CHAOT_ImgID1.png"
   id="image226" />
   </pattern>
   <pattern
   id="id1"
   patternUnits="userSpaceOnUse"
   patternTransform="matrix(1 0 0 1 20.9999 109.499)"
   x="0"
   y="0"
   width="48.001"
   height="78.0004">
    <image
   x="0"
   y="0"
   width="48.001"
   height="78.0004"
   href="Carte ETHERLORD - CHAOT_Images\Carte ETHERLORD - CHAOT_ImgID2.png"
   id="image229" />
   </pattern>
   <pattern
   id="id2"
   patternUnits="userSpaceOnUse"
   patternTransform="matrix(1 0 0 1 20.9997 199.499)"
   x="0"
   y="0"
   width="48.0014"
   height="78">
    <image
   x="0"
   y="0"
   width="48.0014"
   height="78"
   href="Carte ETHERLORD - CHAOT_Images\Carte ETHERLORD - CHAOT_ImgID3.png"
   id="image232" />
   </pattern>
   <pattern
   id="id3"
   patternUnits="userSpaceOnUse"
   patternTransform="matrix(1 0 0 1 140.999 19.4997)"
   x="0"
   y="0"
   width="48.0012"
   height="78.0002">
    <image
   x="0"
   y="0"
   width="48.0012"
   height="78.0002"
   href="Carte ETHERLORD - CHAOT_Images\Carte ETHERLORD - CHAOT_ImgID4.png"
   id="image235" />
   </pattern>
   <pattern
   id="id4"
   patternUnits="userSpaceOnUse"
   patternTransform="matrix(1 0 0 1 140.999 109.499)"
   x="0"
   y="0"
   width="48.0014"
   height="78">
    <image
   x="0"
   y="0"
   width="48.0014"
   height="78"
   href="Carte ETHERLORD - CHAOT_Images\Carte ETHERLORD - CHAOT_ImgID5.png"
   id="image238" />
   </pattern>
   <pattern
   id="id5"
   patternUnits="userSpaceOnUse"
   patternTransform="matrix(1 0 0 1 140.999 199.499)"
   x="0"
   y="0"
   width="48.0014"
   height="78">
    <image
   x="0"
   y="0"
   width="48.0014"
   height="78"
   href="Carte ETHERLORD - CHAOT_Images\Carte ETHERLORD - CHAOT_ImgID6.png"
   id="image241" />
   </pattern>
   <pattern
   id="id6"
   patternUnits="userSpaceOnUse"
   patternTransform="matrix(1 0 0 1 80.9994 19.4997)"
   x="0"
   y="0"
   width="48.0012"
   height="78.0002">
    <image
   x="0"
   y="0"
   width="48.0012"
   height="78.0002"
   href="Carte ETHERLORD - CHAOT_Images\Carte ETHERLORD - CHAOT_ImgID7.png"
   id="image244" />
   </pattern>
   <pattern
   id="id7"
   patternUnits="userSpaceOnUse"
   patternTransform="matrix(1 0 0 1 80.9993 109.499)"
   x="0"
   y="0"
   width="48.0014"
   height="78">
    <image
   x="0"
   y="0"
   width="48.0014"
   height="78"
   href="Carte ETHERLORD - CHAOT_Images\Carte ETHERLORD - CHAOT_ImgID8.png"
   id="image247" />
   </pattern>
   <pattern
   id="id8"
   patternUnits="userSpaceOnUse"
   patternTransform="matrix(1 0 0 1 80.9993 199.499)"
   x="0"
   y="0"
   width="48.0014"
   height="78">
    <image
   x="0"
   y="0"
   width="48.0014"
   height="78"
   href="Carte ETHERLORD - CHAOT_Images\Carte ETHERLORD - CHAOT_ImgID9.png"
   id="image250" />
   </pattern>
   <pattern
   id="id9"
   patternUnits="userSpaceOnUse"
   x="18"
   y="196.499"
   width="53.9998"
   height="83.9832">
    <image
   x="0"
   y="0"
   width="53.9998"
   height="83.9832"
   href="Carte ETHERLORD - CHAOT_Images\Carte ETHERLORD - CHAOT_ImgID19.png"
   id="image253" />
   </pattern>
   <pattern
   id="id10"
   patternUnits="userSpaceOnUse"
   x="18"
   y="106.5"
   width="53.9998"
   height="83.9832">
    <image
   x="0"
   y="0"
   width="53.9998"
   height="83.9832"
   href="Carte ETHERLORD - CHAOT_Images\Carte ETHERLORD - CHAOT_ImgID20.png"
   id="image256" />
   </pattern>
   <pattern
   id="id11"
   patternUnits="userSpaceOnUse"
   x="137.999"
   y="106.5"
   width="53.9998"
   height="83.9832">
    <image
   x="0"
   y="0"
   width="53.9998"
   height="83.9832"
   href="Carte ETHERLORD - CHAOT_Images\Carte ETHERLORD - CHAOT_ImgID21.png"
   id="image259" />
   </pattern>
   <pattern
   id="id12"
   patternUnits="userSpaceOnUse"
   x="137.999"
   y="196.499"
   width="53.9998"
   height="83.9832">
    <image
   x="0"
   y="0"
   width="53.9998"
   height="83.9832"
   href="Carte ETHERLORD - CHAOT_Images\Carte ETHERLORD - CHAOT_ImgID22.png"
   id="image262" />
   </pattern>
   <pattern
   id="id13"
   patternUnits="userSpaceOnUse"
   x="77.9996"
   y="106.5"
   width="53.9998"
   height="83.9832">
    <image
   x="0"
   y="0"
   width="53.9998"
   height="83.9832"
   href="Carte ETHERLORD - CHAOT_Images\Carte ETHERLORD - CHAOT_ImgID23.png"
   id="image265" />
   </pattern>
   <pattern
   id="id14"
   patternUnits="userSpaceOnUse"
   x="77.9996"
   y="196.499"
   width="53.9998"
   height="83.9832">
    <image
   x="0"
   y="0"
   width="53.9998"
   height="83.9832"
   href="Carte ETHERLORD - CHAOT_Images\Carte ETHERLORD - CHAOT_ImgID24.png"
   id="image268" />
   </pattern>
   <pattern
   id="id15"
   patternUnits="userSpaceOnUse"
   x="18"
   y="16.5"
   width="53.9998"
   height="83.9832">
    <image
   x="0"
   y="0"
   width="53.9998"
   height="83.9832"
   href="Carte ETHERLORD - CHAOT_Images\Carte ETHERLORD - CHAOT_ImgID25.png"
   id="image271" />
   </pattern>
   <pattern
   id="id16"
   patternUnits="userSpaceOnUse"
   x="137.999"
   y="16.5"
   width="53.9998"
   height="83.9832">
    <image
   x="0"
   y="0"
   width="53.9998"
   height="83.9832"
   href="Carte ETHERLORD - CHAOT_Images\Carte ETHERLORD - CHAOT_ImgID26.png"
   id="image274" />
   </pattern>
   <pattern
   id="id17"
   patternUnits="userSpaceOnUse"
   x="77.9996"
   y="16.5"
   width="53.9998"
   height="83.9832">
    <image
   x="0"
   y="0"
   width="53.9998"
   height="83.9832"
   href="Carte ETHERLORD - CHAOT_Images\Carte ETHERLORD - CHAOT_ImgID27.png"
   id="image277" />
   </pattern>
 
  <metadata
   id="CorelCorpID_0Corel-Layer" />
  
  
  
  
  
  
  
  
  
  
  
  
  
  
  
  
  
  
  
  
  
  
  
  
  
  
  
  
  
  
  
  
  
  
  
  
  
  
  
  
  
  
  
  
  
  
  
  
  
  
  
  
  
  
  
  
  
  
  
  
  
  
  
  
  
  
  
  
  
  
  
  
  
  
  
  
  
  
  
  
  
  
  
  
  
  
  
  
  
  
  
  
  
  
  
  
  
  
  
  
  
  
  
  
  
  
  
  
  
  
  
  
  
  
  
  
  
  
  
  
  
  
  
  
  
  
  
  
  
  
  
  
  
  
  
  
  
  
  
  
  
  
  
  
  
  
  
  
  
  
  
  
  
  
  
  
  
  
  
  
  
  
  
  
  
  
  
  
  
  
  
  
  
  
  
  
  
  
  
  
  
  
  
  
  
  
  
  
  
  
  
  
  
  
  
  
  
  
  
  
  
  
  
  
  
  
  
  
  
  
  
  
  
  
  
  
  
  
  
  
  
  
  
  
  
  
  
 <inkscape:perspective
   id="perspective3652"
   inkscape:persp3d-origin="372.04724 : 350.78739 : 1"
   inkscape:vp_z="744.09448 : 526.18109 : 1"
   inkscape:vp_y="0 : 1000 : 0"
   inkscape:vp_x="0 : 526.18109 : 1"
   sodipodi:type="inkscape:persp3d" /><linearGradient
   inkscape:collect="always"
   xlink:href="#linearGradient3670"
   id="linearGradient6022"
   x1="88.811699"
   y1="60.588787"
   x2="118.77768"
   y2="90.160217"
   gradientUnits="userSpaceOnUse"
   spreadMethod="pad"
   gradientTransform="translate(320.01633,-30.001531)" /><inkscape:perspective
   id="perspective6043"
   inkscape:persp3d-origin="372.04724 : 350.78739 : 1"
   inkscape:vp_z="744.09448 : 526.18109 : 1"
   inkscape:vp_y="0 : 1000 : 0"
   inkscape:vp_x="0 : 526.18109 : 1"
   sodipodi:type="inkscape:persp3d" /><linearGradient
   inkscape:collect="always"
   xlink:href="#linearGradient6396"
   id="linearGradient6402"
   x1="-50.002552"
   y1="21.758684"
   x2="-0.79549652"
   y2="101.08092"
   gradientUnits="userSpaceOnUse" /><linearGradient
   inkscape:collect="always"
   xlink:href="#linearGradient6396"
   id="linearGradient6547"
   gradientUnits="userSpaceOnUse"
   x1="-50.002552"
   y1="21.758684"
   x2="-0.79549652"
   y2="101.08092" /><inkscape:perspective
   id="perspective2923"
   inkscape:persp3d-origin="372.04724 : 350.78739 : 1"
   inkscape:vp_z="744.09448 : 526.18109 : 1"
   inkscape:vp_y="0 : 1000 : 0"
   inkscape:vp_x="0 : 526.18109 : 1"
   sodipodi:type="inkscape:persp3d" /><inkscape:perspective
   id="perspective2936"
   inkscape:persp3d-origin="372.04724 : 350.78739 : 1"
   inkscape:vp_z="744.09448 : 526.18109 : 1"
   inkscape:vp_y="0 : 1000 : 0"
   inkscape:vp_x="0 : 526.18109 : 1"
   sodipodi:type="inkscape:persp3d" /><inkscape:perspective
   id="perspective2949"
   inkscape:persp3d-origin="372.04724 : 350.78739 : 1"
   inkscape:vp_z="744.09448 : 526.18109 : 1"
   inkscape:vp_y="0 : 1000 : 0"
   inkscape:vp_x="0 : 526.18109 : 1"
   sodipodi:type="inkscape:persp3d" /><inkscape:perspective
   id="perspective2929"
   inkscape:persp3d-origin="372.04724 : 350.78739 : 1"
   inkscape:vp_z="744.09448 : 526.18109 : 1"
   inkscape:vp_y="0 : 1000 : 0"
   inkscape:vp_x="0 : 526.18109 : 1"
   sodipodi:type="inkscape:persp3d" /><linearGradient
   inkscape:collect="always"
   xlink:href="#linearGradient6396"
   id="linearGradient5411"
   gradientUnits="userSpaceOnUse"
   x1="-50.002552"
   y1="21.758684"
   x2="-0.79549652"
   y2="101.08092" /><linearGradient
   gradientUnits="userSpaceOnUse"
   y2="116.83929"
   x2="152.35715"
   y1="38.892857"
   x1="101.41071"
   id="linearGradient2581"
   xlink:href="#linearGradient2575"
   inkscape:collect="always" /><linearGradient
   gradientTransform="translate(68.464286,0)"
   y2="112.70089"
   x2="61.111607"
   y1="107.27679"
   x1="56.370533"
   gradientUnits="userSpaceOnUse"
   id="linearGradient2573"
   xlink:href="#linearGradient2543"
   inkscape:collect="always" />
  
  
  
  
  
  
  
  
  
  
  
  
 <metadata
   id="metadata5903" />
 
  <pattern
   height="83.9832"
   width="53.9998"
   y="0"
   x="0"
   patternTransform="matrix(1 0 0 1 31.6655 36.7628)"
   patternUnits="userSpaceOnUse"
   id="pattern5900">
    <image
   id="image130"
   href="Carte ETHERLORD - Carte Blanche_Images\Carte ETHERLORD - Carte Blanche_ImgID1.png"
   height="83.9832"
   width="53.9998"
   y="0"
   x="0" />
   </pattern>
   <style
   id="style127"
   type="text/css">
   
    @font-face { font-family:&quot;Chow Fun&quot;;src:url(&quot;#FontID0&quot;) format(svg)}
    .str0 {stroke:#1F1A17;stroke-width:0.0762}
    .str2 {stroke:#1F1A17;stroke-width:0.1764}
    .str4 {stroke:#838281;stroke-width:0.1764}
    .str5 {stroke:#1F1A17;stroke-width:0.3528}
    .str1 {stroke-width:50.0028}
    .str3 {stroke-width:55.5591}
    .fil1 {fill:none}
    .fil3 {fill:none;fill-rule:nonzero}
    .fil2 {fill:#1F1A17}
    .fil0 {fill:white}
    .fil4 {fill:#1F1A17;fill-rule:nonzero}
    .fnt1 {font-weight:normal;font-size:3.175;font-family:'Chow Fun'}
    .fnt0 {font-weight:normal;font-size:3.5278;font-family:'Chow Fun'}
   
  </style>
  <font
   font-weight="400"
   font-style="normal"
   class="str1"
   font-variant="normal"
   id="font5776"
   horiz-origin-x="0"
   horiz-origin-y="0"
   horiz-adv-x="0"
   vert-origin-x="0"
   vert-origin-y="0"
   vert-adv-y="0"
   style="font-style:normal;font-variant:normal;font-weight:400;stroke-width:50.00279999">
	<font-face
   id="font-face5778"
   font-family="Chow Fun">
	</font-face>
   <missing-glyph
   id="missing-glyph5780"><path
     id="path5782"
     d="M0 0z" /></missing-glyph>
   <glyph
   id="glyph5784"
   horiz-adv-x="328"
   unicode="-"><path
     id="path5787"
     d="M18.9921 340l291.024 10.0157 -10.0157 -84c-108.661,0 -202.677,-13.6693 -281.984,-41.0079l0.976378 114.992z" /></glyph>
   <glyph
   id="glyph5789"
   horiz-adv-x="309"
   unicode=" " />
   <glyph
   id="glyph5791"
   horiz-adv-x="293"
   unicode="I"><path
     id="path5793"
     d="M253.008 17.0079l-169.008 -79.0236c-21.9843,74.0157 -33.0079,163.685 -33.0079,269.008 0,227.339 32.3465,439.024 97.0079,635.024l80 -35.0236c-27.3386,-83.3386 -41.0079,-181.984 -41.0079,-296 0,-173.323 22.0157,-337.984 66.0157,-493.984z" /></glyph>
   <glyph
   id="glyph5795"
   horiz-adv-x="889"
   unicode="H"><path
     id="path5797"
     d="M848.007 554c0.651964,-23.329 0.99212,-46.006 0.99212,-68.0027 0,-132.009 -22.3369,-303.334 -67.0106,-514.003l-69.987 10.0062c21.9967,63.3256 32.9951,136.998 32.9951,220.988 0,186.689 -40.6769,379.67 -122.002,579.001l179.007 70.0153c28.0061,-117.325 43.3415,-216.679 46.006,-298.004zm-187 -64.0059l-50.0028 -158.994c-34.6675,24.0093 -84.6703,43.0013 -150.009,57.0044 -57.9965,12.6708 -115.341,18.992 -172.005,18.992 -15.9873,0 -30.6707,-0.651964 -43.9934,-1.98424l-4.98894 63.9775c77.3286,37.332 158.994,56.0122 244.997,56.0122 50.6548,0 109.332,-11.6787 176.002,-35.0077zm-376.013 -467.997l-179.007 -83.99c-37.984,44.6737 -56.976,127.672 -56.976,248.994 0,183.344 32.3148,399.994 97.001,650.009l58.9886 -30.0187c-24.0093,-93.9963 -35.9998,-189.325 -35.9998,-285.986 0,-85.3506 9.32593,-171.013 28.0061,-257.016 20.6644,-95.3285 50.0028,-176.002 87.9868,-241.992z" /></glyph>
   <glyph
   id="glyph5799"
   horiz-adv-x="877"
   unicode="N"><path
     id="path5801"
     d="M852.004 525.001c0,-176.654 -42.6611,-365.015 -128.012,-564.998l-69.987 25.0014c35.3195,82.0058 53.0075,174.33 53.0075,277 0,128.664 -21.0046,246.669 -63.0138,353.988 -25.3416,11.3385 -53.9997,17.0078 -86.0026,17.0078 -98.6734,0 -207.325,-39.0045 -326.011,-117.013l5.01729 80.0215c70.6673,63.3256 151.653,115.653 242.984,156.982 98.0214,44.6737 191.026,68.683 279.012,71.9995 61.9933,-68.0027 93.0041,-167.98 93.0041,-299.989zm-579.993 -520.012l-189.013 -79.9932c-23.329,84.0184 -35.0077,187.681 -35.0077,311.015 0,209.989 43.0013,404.643 129.004,583.99l50.0028 -39.9966c-30.6707,-100.658 -46.006,-216.679 -46.006,-348.007 0,-161.999 30.3305,-304.326 91.0199,-427.008z" /></glyph>
   <glyph
   id="glyph5803"
   horiz-adv-x="694"
   unicode="L"><path
     id="path5805"
     d="M707.013 255.995l-60.0091 -269.006c-45.3257,-15.3353 -99.6655,-22.9888 -162.991,-22.9888 -67.3508,0 -130.676,10.9984 -190.005,32.9951l-35.0077 110.012c32.6549,-14.6834 73.3318,-21.9967 122.002,-21.9967 123.335,0 231.986,56.976 326.011,170.985zm-453.002 -228.981l-203.016 -65.0264c-12.6708,94.6766 -18.992,189.013 -18.992,283.009 0,248.682 32.6549,452.662 97.9931,611.996l64.998 -39.9966c-24.6613,-89.3191 -36.9919,-184.336 -36.9919,-284.993 0,-187.341 32.0029,-355.661 96.0088,-504.989z" /></glyph>
   <glyph
   id="glyph5807"
   horiz-adv-x="859"
   unicode="B"><path
     id="path5809"
     d="M693.008 654.016c0,-48 -30.6772,-98.6772 -92,-152 -54.0157,-46.0157 -120,-85.6693 -198.016,-119.024 -75.3386,-32 -136.315,-46.9921 -182.992,-44.9764l-5.00787 64c72.6614,16 134.331,38.3307 185.008,66.9921 72.6614,41.3228 109.008,89.9843 109.008,145.984 0,27.3386 -13.3543,49.6693 -40,67.0236 -23.3386,14.6457 -49.3543,21.9843 -78.0157,21.9843 -44.6614,0 -98.3307,-14.3307 -160.976,-42.9921l0 73.9843c95.3071,50.0157 180,75.0236 253.984,75.0236 51.3386,0 97.3228,-13.0079 138.016,-39.0236 47.3071,-29.3228 70.9921,-68.315 70.9921,-116.976zm153.008 -376c0,-83.3386 -41.3543,-158.362 -124,-225.008 -78.0157,-62.0157 -159.685,-93.0079 -245.008,-93.0079 -37.3543,0 -74.6772,4 -112,12 -46.6772,9.98425 -80,24.3465 -100,42.9921l0 54.0157c60.6614,-13.3543 114.646,-20 161.984,-20 62.0157,0 116,18.9921 162.016,57.0079 48.6614,40.6614 73.0079,91.3071 73.0079,152 0,33.9843 -11.5276,65.1654 -34.5197,93.4803 -22.9921,28.3465 -51.1496,46.8346 -84.5039,55.4961l85.0079 65.0079c58.6772,-2.67717 108.661,-20.6614 150.016,-53.9843 45.3228,-36.6929 68,-83.3386 68,-140zm-626.016 -278.016l-173.984 -70.0157c-3.33858,53.3543 -5.00787,119.339 -5.00787,198.016 0,293.323 31.6535,522.331 94.9921,686.992l64 -34.9921c-25.3228,-104 -37.9843,-225.669 -37.9843,-365.008 0,-151.339 19.3071,-289.669 57.9843,-414.992z" /></glyph>
   <glyph
   id="glyph5811"
   horiz-adv-x="838"
   unicode="E"><path
     id="path5813"
     d="M823.006 690.005l-104.002 -143.999c-17.3479,55.3319 -56.3241,97.3411 -117.013,125.999 -50.6548,23.981 -109.332,35.9998 -176.002,35.9998 -17.3196,0 -33.9872,-0.99212 -49.9745,-3.00471 27.3258,21.9967 54.6516,43.6533 81.9774,64.998 25.3416,16.0156 57.0044,24.0093 95.0167,24.0093 46.006,0 93.9963,-10.0062 143.999,-30.0187 47.9902,-18.6519 89.9994,-43.3131 125.999,-73.9838zm-248.002 -237.995l-89.9994 -139.01c-15.3353,38.6643 -62.6736,57.9965 -142.015,57.9965 -33.9872,0 -65.9901,-3.00471 -95.9805,-8.98577l9.97789 69.987c61.3413,34.6675 122.683,52.0154 184.024,52.0154 54.6516,0 99.3254,-10.6865 133.993,-32.0029zm273.003 -363.002c-93.3443,-88.6672 -207.353,-133.001 -341.998,-133.001 -136.686,0 -249.022,32.3148 -337.009,97.001 -98.6734,71.9995 -147.996,173.989 -147.996,305.998 0,100.658 34.6675,192.67 104.002,276.008 73.9838,88.6672 161.007,133.653 260.984,134.985 -59.3288,-48.6706 -104.995,-108.651 -136.998,-179.999 -30.6707,-68.6547 -46.006,-142.327 -46.006,-220.988 0,-101.338 28.1762,-182.011 84.5003,-242.021 56.3524,-59.9807 134.503,-89.9994 234.509,-89.9994 58.6768,0 113.669,10.9984 165.004,32.9951 57.3445,24.6896 100.998,59.3571 130.988,104.002l30.0187 -84.9821z" /></glyph>
   <glyph
   id="glyph5815"
   horiz-adv-x="1018"
   unicode="A"><path
     id="path5817"
     d="M997.987 -4.98894l-177.986 -64.998c0.651964,157.322 -12.6708,304.978 -39.9966,442.996 -41.3289,207.325 -107.659,324.65 -198.991,352.004l84.9821 19.9841c104.002,-65.3382 186.66,-176.654 248.002,-334.004 52.0154,-133.313 79.9932,-271.983 83.99,-415.982zm-277.992 376.977l-43.9934 -153.977c-32.6549,49.3225 -99.6655,73.9838 -201.003,73.9838 -65.3382,0 -129.344,-7.99365 -191.989,-23.981l4.98894 49.9745c64.6579,57.3445 147.344,86.0026 248.002,86.0026 68.0027,0 129.344,-10.6582 183.996,-32.0029zm-108.991 418.023c-136.657,-24.0093 -239.328,-115.001 -308.011,-273.003 -54.6516,-124.667 -82.0058,-271.331 -82.0058,-440.019 0,-26.6455 0.680311,-52.3272 2.01259,-76.9885l-187.993 -60.0091 -3.00471 79.0011c-4.67714,131.328 19.6723,255.343 72.9917,372.017 53.3477,116.645 131.016,218.663 233.006,305.998 17.9999,14.655 43.6533,33.9872 76.9885,57.9965 42.0092,29.9904 67.6909,44.9855 77.0168,44.9855 0,0 39.6564,-3.31651 118.998,-9.97789z" /></glyph>
   <glyph
   id="glyph5819"
   horiz-adv-x="863"
   unicode="C"><path
     id="path5821"
     d="M845.003 705l-100.006 -164.012c-49.3225,108.68 -134.985,163.019 -256.987,163.019 -38.6643,0 -72.3397,-4.67714 -100.998,-14.0031 23.329,27.3258 46.3178,54.3398 68.9948,80.9853 21.9967,20.0125 52.3272,30.0187 90.9916,30.0187 89.9994,0 189.325,-32.0029 298.004,-96.0088zm39.0045 -571.007c-48.6706,-55.3319 -106.327,-98.3332 -172.997,-129.004 -66.6704,-30.6423 -136.686,-45.9777 -210.018,-45.9777 -133.993,0 -245.989,34.6675 -335.988,104.002 -98.6734,75.9964 -147.996,178.978 -147.996,308.974 0,89.3475 40.3368,178.667 120.982,268.014 82.6861,92.664 167.356,137.678 254.011,134.985l10.0062 0c-135.353,-116.645 -203.016,-239.328 -203.016,-367.991 0,-97.9931 32.9951,-181.501 99.0135,-250.496 65.9901,-68.9948 147.996,-103.492 245.989,-103.492 106.667,0 210.329,51.6469 311.015,154.997l28.9982 -74.0121z" /></glyph>
   <glyph
   id="glyph5823"
   horiz-adv-x="704"
   unicode="T"><path
     id="path5825"
     d="M754.011 734.991l-104.002 -137.99c-105.335,60.661 -213.022,90.9916 -323.006,90.9916 -111.344,0 -203.668,-23.981 -277,-71.9995l-45.0139 56.0122c117.354,93.9963 252.679,140.994 406.004,140.994 128.664,0 243.013,-25.9935 343.018,-78.009zm-317.025 -677.986l-170.985 -104.002c-74.6641,71.3192 -111.996,158.654 -111.996,262.005 0,69.987 17.0078,145.983 50.995,227.989 32.0029,75.3444 72.3397,143.007 121.01,203.016l77.9806 -10.9984c-65.3382,-72.6799 -97.9931,-154.686 -97.9931,-246.017 0,-55.9839 12.3306,-115.001 36.9919,-176.994 24.6896,-59.3288 56.0122,-111.004 93.9963,-154.997z" /></glyph>
   <glyph
   id="glyph5827"
   horiz-adv-x="939"
   unicode="R"><path
     id="path5829"
     d="M708.005 661.007c0,-91.3317 -60.661,-161.007 -182.011,-208.997 -89.3191,-35.3478 -187.652,-53.6879 -295,-55.0201l5.01729 75.0043c8.64561,-5.3291 20.9762,-7.99365 36.9919,-7.99365 51.3351,0 104.002,14.9952 158.002,45.0139 61.9933,34.6392 93.0041,75.3161 93.0041,121.974 0,26.0219 -16.6676,46.6863 -50.0028,62.0217 -25.9935,11.9905 -53.9997,17.9999 -84.0184,17.9999 -45.9777,0 -100.658,-10.3464 -163.983,-31.0108l10.0062 70.0153c19.3322,17.9999 59.3288,32.6549 119.99,43.9934 48.6706,9.32593 93.0041,14.0031 133.001,14.0031 146.012,0 219.003,-49.0107 219.003,-147.004zm237.995 -656.018l-223.992 -74.9759c4.64879,17.9999 7.00153,35.9998 7.00153,53.9997 0,70.6673 -33.6754,145.983 -100.998,225.977 -54.68,64.6862 -119.338,120.33 -194.002,167.016 66.6704,16.6676 99.9773,25.0014 99.9773,25.0014 80.6735,0 165.344,-47.3383 254.011,-142.015 78.009,-83.99 130.676,-169.001 158.002,-255.003zm-690.997 10.0062l-169.001 -84.9821c-35.9998,119.99 -53.9997,258.66 -53.9997,415.982 0,176.002 29.6502,334.004 89.0073,474.006l74.9759 -35.0077c-23.329,-86.6546 -34.9793,-189.325 -34.9793,-307.982 0,-172.686 31.3226,-326.691 93.9963,-462.016z" /></glyph>
   <glyph
   id="glyph5831"
   horiz-adv-x="656"
   unicode="a"><path
     id="path5833"
     d="M660 -8c-21.9843,-8 -42.9921,-12 -62.9921,-12 -68,0 -112,30.9921 -132,93.0079 -10.6772,64 -21.3543,128 -32,192 -17.3543,78.6457 -55.3386,130.992 -114.016,157.008l131.024 54.9921c51.3071,-19.3386 85.6378,-70.6772 102.992,-154.016 9.32283,-72 18.6457,-144 28,-216 12,-73.9843 38.3307,-112.315 78.9921,-114.992zm-289.984 490.992c-70.0157,-16.6614 -155.685,-67.6535 -257.008,-152.976l-70.0157 80c26.0157,28.6614 59.1811,51.811 99.4961,69.4803 40.3465,17.6693 79.8425,26.5197 118.52,26.5197 36.6614,0 73.0079,-7.68504 109.008,-23.0236zm45.9843 -440.976c-17.9843,-20 -49.9843,-35.0236 -96,-45.0079 -36,-8 -72.3465,-12 -109.008,-12 -36,0 -71.6535,13.9843 -106.992,41.9843 -37.9843,30.0157 -56.3465,62.6772 -54.9921,98.0157 1.32283,46.6457 31.3386,88 89.9843,124 52.6614,32.6614 103.685,49.0079 153.008,49.0079 32,0 64,-5.66929 96,-17.0079l-1.98425 -62.0157c-8,2.01575 -17.3543,3.02362 -28,3.02362 -31.3386,0 -63.0236,-6.67717 -95.0236,-20 -39.3386,-17.3543 -59.3386,-39.685 -60,-67.0236 -0.661417,-21.3228 7.02362,-39.4961 23.0236,-54.4882 16,-14.9921 34.3307,-22.4882 54.9921,-22.4882 32.6614,0 70.3307,16.9764 113.008,50.9921l21.9843 -66.9921z" /></glyph>
   <glyph
   id="glyph5835"
   horiz-adv-x="899"
   unicode="m"><path
     id="path5837"
     d="M846.992 269.008c0,-109.354 -24,-205.669 -72,-289.008l-72.9764 13.0079c21.9843,63.3386 32.9764,127.339 32.9764,192 0,78.6457 -21.3228,135.339 -64,169.984l-97.9843 6.01575 -25.0079 66.9921c38.0157,28.6614 124,59.3386 258.016,92 27.3071,-73.3228 40.9764,-157.008 40.9764,-250.992zm-320.976 -13.0079c0,-105.323 -19.0236,-201.323 -57.0079,-288l-56 30.9921c13.9843,39.3386 21.0079,80 21.0079,122.016 0,93.3228 -25.3543,175.339 -76,245.984l-129.008 -5.98425 -12 61.0079c49.9843,49.3228 127.654,85.9843 233.008,109.984 50.6457,-77.9843 76,-169.984 76,-276zm-303.024 -157.008c0,-52.6614 -1.98425,-98.3307 -5.98425,-137.008l-166.016 49.0079c35.3386,58.6772 53.0079,132.346 53.0079,221.008 0,88.6614 -13.3228,172.346 -40,250.992l61.0079 25.0079c65.3228,-81.3228 97.9843,-217.669 97.9843,-409.008z" /></glyph>
   <glyph
   id="glyph5839"
   horiz-adv-x="274"
   unicode="l"><path
     id="path5841"
     d="M236 792c-39.3386,-109.323 -58.9921,-241.984 -58.9921,-397.984 0,-130.016 17.6693,-255.024 53.0079,-375.024 -36.6929,-36.6614 -93.6693,-54.9921 -171.024,-54.9921 -4,48.6614 -5.98425,108.346 -5.98425,178.992 0,319.339 40.6614,548 121.984,686.016l61.0079 -37.0079z" /></glyph>
   <glyph
   id="glyph5843"
   horiz-adv-x="615"
   unicode="o"><path
     id="path5845"
     d="M592 256c0,-66.6772 -29.0079,-125.984 -86.9921,-177.984 -51.3386,-46.6772 -112,-77.3543 -182.016,-92.0315 34.6772,26.6772 63.3386,60.0315 86.0157,100.031 24,42.6457 36,84.9764 36,126.992 0,45.3228 -9.35433,91.3386 -28,137.984 -24,59.3386 -55.3386,87.0236 -94.0157,83.0236l73.0079 54.9921c61.3228,-5.35433 110.016,-30.3307 146.016,-74.9921 33.3228,-42.6772 49.9843,-95.3386 49.9843,-158.016zm-269.008 -196l-73.9843 -68c-58.0157,-2.01575 -106.992,19.6535 -146.992,65.0079 -37.3543,42.6457 -56,93.3228 -56,152 0,81.9843 24.9764,149.008 74.9921,201.008 48,50.6457 113.008,80.9764 194.992,90.9921 -48.6614,-60.6614 -78.9921,-102.016 -90.9921,-124 -21.3543,-41.3543 -32,-92 -32,-152 0,-44 7.65354,-81.0079 22.9921,-110.992 19.3386,-37.3543 48,-56 86.0157,-56 6.64567,0 13.6378,0.661417 20.9764,1.98425z" /></glyph>
   <glyph
   id="glyph5847"
   horiz-adv-x="590"
   unicode="c"><path
     id="path5849"
     d="M546.992 428l-109.984 -97.9843c-12,25.3228 -30.0157,46.3307 -54.0157,62.9921 -24,16.6614 -49.6693,25.0079 -76.9764,25.0079 -8,0 -15.685,-0.692913 -23.0236,-2.01575l80 78.9921c12.6614,2.67717 25.3543,4 38.0157,4 59.3386,0 108,-23.6535 145.984,-70.9921zm6.01575 -356c-22.6772,-28 -62.6772,-50.6772 -120,-68 -48,-14.0157 -94.6772,-21.0079 -140,-21.0079 -73.3543,0 -133.354,19.0236 -180,57.0079 -50.0157,40.6614 -74.9921,96.6614 -74.9921,168 0,76 25.9843,140.661 77.9843,194.016 46.0157,47.3071 108,82.6457 186.016,105.984 -32.6929,-32.6614 -60.6929,-72.3465 -84,-118.992 -26.0157,-51.3386 -39.0236,-97.6693 -39.0236,-138.992 0,-38.6772 17.3543,-78.0157 52,-118.016 34.6772,-40 71.3386,-60 110.016,-60 86.6457,0 149.323,30.6772 188,92l24 -92z" /></glyph>
   <glyph
   id="glyph5851"
   horiz-adv-x="646"
   unicode="e"><path
     id="path5853"
     d="M594.016 333.008c0,-52 -26.3622,-93.6693 -79.0236,-125.008 -45.3228,-26.6772 -95.6535,-39.3386 -150.992,-37.9843l-33.9843 0 -43.0236 85.9843c15.3386,-11.3386 34.0157,-17.0079 56,-17.0079 24.6614,0 47.685,7.02362 69.0079,21.0079 24,15.3386 36,34.9921 36,58.9921 0,24.6614 -10.1732,46.0157 -30.4882,64 -20.3465,18.0157 -43.1811,29.0079 -68.5039,33.0079 4,17.3228 21.9843,34.3307 53.9843,50.9921 28.6614,14.6772 53.3543,22.0157 74.0157,22.0157 33.3228,0 61.9843,-18.3307 85.9843,-54.9921 20.6614,-32.6929 31.0236,-66.3622 31.0236,-101.008zm-6.01575 -273.008c-55.3386,-60 -132.661,-90.0157 -232,-90.0157 -205.323,0 -308,85.0079 -308,255.024 0,70.6457 35.3386,133.323 106.016,188 65.9843,50.6457 134.992,76 206.992,76 -109.354,-84 -164,-168 -164,-252 0,-50.6772 17.0079,-96 50.9921,-136 36,-42.0157 78.9921,-62.9921 129.008,-62.9921 65.3228,0 129.323,33.9843 192,101.984l18.9921 -80z" /></glyph>
   <glyph
   id="glyph5855"
   horiz-adv-x="262"
   unicode="i"><path
     id="path5857"
     d="M268 758.992c0,-20.6614 -6.67717,-38.9921 -20,-54.9921 -14.6772,-17.9843 -32,-26.9921 -52,-26.9921 -15.3386,0 -27.6535,5.82677 -37.0079,17.4803 -9.32283,11.685 -13.9843,25.1654 -13.9843,40.5039 0,20 6.99213,38.5197 21.0079,55.4961 13.9843,17.0079 30.9921,25.5118 50.9921,25.5118 15.3386,0 27.6535,-5.66929 37.0079,-17.0079 9.32283,-11.3386 13.9843,-24.6614 13.9843,-40zm-30.9921 -710.992l-146.992 -98.9921c-28.6929,45.9843 -43.0236,118.646 -43.0236,217.984 0,114.016 14.3307,233.669 43.0236,359.024l68 -12c-8,-38.6772 -12,-77.6693 -12,-117.008 0,-59.3386 8,-119.685 24,-181.008 16,-64.6614 38.3307,-120.661 66.9921,-168z" /></glyph>
   <glyph
   id="glyph5859"
   horiz-adv-x="634"
   unicode="d"><path
     id="path5861"
     d="M605.008 533.008c0,-138.016 -14.0157,-270.677 -42.0157,-398.016l-85.9843 -12.9764c17.9843,62.6457 26.9921,131.307 26.9921,205.984 0,154.677 -31.3386,298.331 -93.9843,430.992l146.992 80c32,-77.9843 48,-180 48,-305.984zm-64 -454.992l-12 -73.0079c-62.6772,-20 -126.677,-30.0157 -192,-30.0157 -79.3386,0 -148.661,21.0079 -208,63.0236 -66.6772,46.6457 -100,108.315 -100,184.976 0,71.3386 37.3228,135.685 112,193.008 69.3228,52.6614 141.008,78.9921 214.992,78.9921 27.3386,0 53.3228,-4 78.0157,-12l0 -66.9921c-18.0157,2.67717 -35.3386,4 -52,4 -54.0157,0 -101.354,-17.6693 -142.016,-53.0079 -41.9843,-37.3228 -62.9921,-82.3307 -62.9921,-134.992 0,-56.6614 26.9921,-99.3386 81.0079,-128 42.6457,-23.3386 94.9921,-34.9921 156.976,-34.9921 44,0 86.0157,2.99213 126.016,9.00787z" /></glyph>
   <glyph
   id="glyph5863"
   horiz-adv-x="618"
   unicode="n"><path
     id="path5865"
     d="M562.016 297.008c0,-116 -20.3465,-226.331 -61.0079,-331.024l-68 24c17.3228,38.0157 25.9843,86.0157 25.9843,144.031 0,80 -20.6614,153.323 -61.9843,220 -42.6772,8.66142 -80,12.9764 -112,12.9764 -24.6614,0 -42.6772,-2.33071 -54.0157,-6.99213l-5.98425 62.0157c92,65.9843 180.315,96.9764 265.008,92.9764l22.9921 -0.976378c32.6614,-58.6772 49.0079,-131.024 49.0079,-217.008zm-343.024 -161.008c0,-72.6614 -4.31496,-129.323 -12.9764,-170.016l-153.008 55.0236c38.6457,107.339 57.9843,214.331 57.9843,321.008 0,63.3071 -6.99213,112.315 -20.9764,146.992l72.9764 25.0079c37.3543,-127.339 56,-253.354 56,-378.016z" /></glyph>
   <glyph
   id="glyph5867"
   horiz-adv-x="599"
   unicode="p"><path
     id="path5869"
     d="M576 258.992c0,-59.3386 -37.0079,-116.661 -110.992,-172 -69.3543,-52.6614 -134.331,-78.9921 -194.992,-78.9921 -18.6772,0 -40,2.01575 -64,6.01575l-6.01575 72.9764c20.6614,-5.32283 40.6614,-8 60,-8 50.6772,0 92.6614,24.3465 126.016,73.0079 29.3228,44 44,92.6614 44,146.016 0,31.3071 -12.6929,58.8031 -38.0157,82.4882 -25.3228,23.6535 -53.6693,35.4961 -85.0079,35.4961 -30.6457,0 -64.315,-9.32283 -100.976,-28l6.99213 80c45.9843,28 90.6457,42.0157 133.984,42.0157 60.6614,0 114.016,-26.5197 160,-79.5276 46.0157,-52.9764 69.0079,-110.142 69.0079,-171.496zm-376 -526.992l-153.008 -74.0157c-10.6457,75.3386 -16,169.354 -16,282.016 0,212 23.685,408.346 71.0236,589.008l68 -25.0079c-18.6772,-91.3386 -28,-200.346 -28,-326.992 0,-162.677 19.3071,-311.024 57.9843,-445.008z" /></glyph>
   <glyph
   id="glyph5871"
   horiz-adv-x="447"
   unicode="t"><path
     id="path5873"
     d="M436 465.008l-37.0079 -92 -102.992 33.0079 5.00787 64.9764 134.992 -5.98425zm-49.9843 -350.016c-77.3543,-77.3228 -153.008,-120 -227.024,-128 -21.9843,64 -32.9764,143.024 -32.9764,237.008 0,64.6614 4.97638,125.323 14.9921,182.016l-134.016 -4 -6.99213 74.9921 158.992 25.0079c16.6614,66.6457 37.3543,140.315 62.0157,220.976l73.0079 -24.9764c-34.0157,-96 -51.0236,-201.354 -51.0236,-316 0,-93.3543 9.00787,-174.016 27.0236,-242.016l92 37.0079 24 -62.0157z" /></glyph>
   <glyph
   id="glyph5875"
   horiz-adv-x="457"
   unicode="r"><path
     id="path5877"
     d="M481.008 485.008l-80 -146.992c-32,28 -70.9921,41.9843 -117.008,41.9843 -33.9843,0 -66.6772,-9.98425 -97.9843,-29.9843l-6.01575 80c86.6772,55.3071 162.016,82.9921 226.016,82.9921 32.6614,0 57.6378,-9.35433 74.9921,-28zm-264 -441.008l-160 -86.0157c-17.3543,72.0315 -26.0157,155.339 -26.0157,250.016 0,116 17.0079,218.677 51.0236,308l60.9764 -25.0079c-15.3386,-39.3386 -22.9921,-88.6614 -22.9921,-148 0,-108 32.3465,-207.654 97.0079,-298.992z" /></glyph>
   <glyph
   id="glyph5879"
   horiz-adv-x="510"
   unicode="s"><path
     id="path5881"
     d="M434.992 462.016l-60.9764 -89.0079c-16,36.6614 -54.6772,59.3386 -116,68l42.9921 49.0079c21.3228,2.64567 37.0079,4 46.9921,4 23.3386,0 52.3465,-10.6772 86.9921,-32zm37.0079 -317.008c0,-44 -23.6535,-80.3465 -70.9921,-109.008 -37.3543,-22.6772 -81.0079,-37.0079 -130.992,-42.9921 49.3228,36.6614 73.9843,75.3386 73.9843,116 0,35.3386 -24.6614,65.3228 -73.9843,89.9843 -46.0157,20 -92,40 -138.016,60 -49.3228,26.0157 -73.9843,58.6772 -73.9843,98.0157 0,36.6614 17.3228,69.0079 52,97.0079 32.6614,26.6457 68,40 105.984,40 12,0 24,-1.35433 36,-4 -36.6614,-34.0157 -54.9921,-63.685 -54.9921,-89.0079 0,-19.3386 23.6535,-40.3465 70.9921,-62.9921 71.3386,-33.3543 115.339,-56.3465 132,-69.0079 48,-34.0157 72,-75.3386 72,-124zm-208 -85.0079c-13.3228,-12.6614 -26.6772,-25.6693 -40,-38.9921 -19.3386,-17.3543 -34.6772,-26.0157 -45.9843,-26.0157 -38.0157,0 -97.3543,25.6693 -178.016,77.0079l92 92c49.3228,-61.3228 106.677,-96 172,-104z" /></glyph>
   <glyph
   id="glyph5883"
   horiz-adv-x="613"
   unicode="z"><path
     id="path5885"
     d="M546.016 409.008c-25.3543,-58.0157 -117.354,-150.016 -276,-276l-68 37.0079c65.3228,41.3228 112.661,106.992 141.984,196.976 -53.9843,16 -136,24 -245.984,24l-24 68c62.6457,16 130.992,24 204.976,24 114.677,0 203.685,-24.6614 267.024,-73.9843zm60.9764 -337.008c-36,-32 -84.6614,-57.3228 -145.984,-76 -54.6772,-16 -109.354,-24 -164,-24 -96,0 -194.992,22.9921 -297.008,69.0079l153.008 98.9921c83.3386,-44.6614 165.984,-66.9921 248,-66.9921 65.3228,0 117.669,17.9843 157.008,53.9843l48.9764 -54.9921z" /></glyph>
   <glyph
   id="glyph5887"
   horiz-adv-x="586"
   unicode="u"><path
     id="path5889"
     d="M553.008 465.008c-46.6772,-78.6772 -70.0157,-176.661 -70.0157,-294.016 0,-47.3386 5.00787,-94.6457 15.0236,-141.984l-67.0236 -31.0236c-37.3228,88.0315 -56,187.685 -56,299.024 0,85.3228 14.3307,163.654 43.0236,234.992l134.992 -66.9921zm-190.016 -381.008c-57.3228,-44.6614 -149.323,-77.3228 -276,-98.0157 -24.6614,66.6772 -36.9764,147.024 -36.9764,241.008 0,106.677 20.6614,206.331 61.9843,299.024l54.9921 -43.0236c-4,-33.9843 -5.98425,-69.9843 -5.98425,-108 0,-103.339 16.315,-179.654 49.0079,-228.976l128.976 12 24 -74.0157z" /></glyph>
   <glyph
   id="glyph5891"
   horiz-adv-x="622"
   unicode="q"><path
     id="path5893"
     d="M586.016 480c-40,-130.677 -60,-275.339 -60,-433.984 0,-115.339 13.9843,-220.031 41.9843,-314.016l-153.984 -110.992c-14.6772,64 -22.0157,145.984 -22.0157,245.984 0,225.354 46.3307,440 138.992,644l55.0236 -30.9921zm-123.024 0l-36.9764 -68c-23.3386,10.6772 -46.0157,16 -68,16 -50.0157,0 -91.685,-26.6772 -125.008,-80 -29.3543,-45.9843 -44,-96 -44,-149.984 0,-37.3543 10.8346,-68 32.5039,-92 21.6693,-24 51.1496,-36 88.5039,-36 19.3071,0 33.6378,3.65354 42.9921,10.9921l0 -86.0157c-28,-9.98425 -55.3386,-14.9921 -82.0157,-14.9921 -64,0 -118.992,24.1575 -164.976,72.5039 -46.0157,48.315 -69.0079,104.819 -69.0079,169.512 0,74.6457 28.315,141.638 85.0079,200.976 56.6614,59.3386 122.331,89.0079 196.976,89.0079 52.6614,0 100.661,-10.6772 144,-32z" /></glyph>
   </font>
</defs>
</svg>
